<?xml version="1.0" standalone="no"?>
<!DOCTYPE svg PUBLIC "-//W3C//DTD SVG 1.1//EN" "http://www.w3.org/Graphics/SVG/1.1/DTD/svg11.dtd" >
<svg xmlns="http://www.w3.org/2000/svg">
<metadata>Generated by IcoMoon</metadata>
<defs>
<font id="The7-bootstrap" horiz-adv-x="512">
<font-face units-per-em="512" ascent="506.88" descent="-5.12" />
<missing-glyph horiz-adv-x="512" />
<glyph unicode="&#x20;" horiz-adv-x="5.12" d="" />
<glyph unicode="&#xe900;" glyph-name="123" d="M91.936 150.496v228.96h-37.568l-54.368-39.584v-36.384l52.48 37.76h1.92v-190.752h37.568zM194.752 313.376v2.016c0 19.776 14.080 37.408 38.272 37.408 21.632 0 37.568-14.080 37.568-35.392 0-19.968-13.44-35.232-25.824-48.832l-85.088-94.272v-23.808h152.96v31.68h-100.064v2.208l56.544 63.552c20.8 23.168 39.584 42.624 39.584 72.64-0.032 36.256-29.568 63.424-74.848 63.424-50.336 0-75.52-34.048-75.52-68.8v-1.824h36.416zM404.64 253.12h25.152c26.336 0 43.968-15.392 44.128-37.728 0.32-22.624-17.6-38.912-45.472-38.72-24.64 0.16-42.432 13.408-44.128 30.496h-35.040c1.344-33.696 30.016-61.376 78.848-61.376 47.296 0 84.544 26.848 83.84 68.608-0.64 36.576-29.504 52.832-49.632 54.848v2.016c17.12 2.88 43.104 21.12 42.432 53.696-0.832 33.696-29.856 59.36-75.488 59.040-48-0.16-74.144-28.16-75.136-60.736h35.712c1.024 15.936 15.936 30.208 38.592 30.208 22.496 0 38.592-13.92 38.592-34.24 0.16-20.48-16.128-35.392-38.4-35.392h-24v-30.72z" />
<glyph unicode="&#xe901;" glyph-name="activity" d="M192 448c6.882-0.003 12.748-4.351 15.004-10.449l0.036-0.111 112.96-310.592 48.96 134.656c2.31 6.178 8.163 10.496 15.024 10.496 0.006 0 0.012 0 0.017 0h111.999c8.837 0 16-7.163 16-16s-7.163-16-16-16v0h-100.8l-60.16-165.44c-2.298-6.202-8.162-10.541-15.040-10.541s-12.742 4.34-15.004 10.43l-0.036 0.111-112.96 310.592-48.96-134.624c-2.302-6.195-8.162-10.528-15.035-10.528-0.001 0-0.004 0-0.005 0h-111.999c-8.836 0-16 7.163-16 16s7.163 16 16 16v0h100.8l60.16 165.44c2.292 6.209 8.158 10.557 15.040 10.56h0z" />
<glyph unicode="&#xe902;" glyph-name="alarm-fill" d="M192 496c0 8.837 7.163 16 16 16v0h96c8.837 0 16-7.163 16-16s-7.163-16-16-16v0h-16v-34.24c109.195-16.206 192.025-109.296 192.025-221.734 0-72.001-33.966-136.069-86.749-177.055l-0.508-0.38 19.232-19.264c2.902-2.898 4.697-6.904 4.697-11.328 0-8.841-7.168-16.009-16.009-16.009-4.417 0-8.416 1.788-11.312 4.681v0l-23.872 23.872c-31.423-17.957-69.060-28.544-109.171-28.544-0.117 0-0.235 0-0.351 0h0.018c-0.099 0-0.216 0-0.333 0-40.11 0-77.748 10.587-110.269 29.12l1.099-0.577-23.872-23.872c-2.896-2.892-6.895-4.681-11.312-4.681-8.841 0-16.009 7.168-16.009 16.009 0 4.425 1.795 8.43 4.697 11.328v0l19.264 19.264c-53.294 41.365-87.262 105.435-87.262 177.438 0 112.428 82.816 205.513 190.772 221.58l1.226 0.15v34.24h-16c-8.837 0-16 7.163-16 16v0zM272 336c0 8.837-7.163 16-16 16s-16-7.163-16-16v0-107.584l-45.728-76.16c-1.434-2.352-2.283-5.197-2.283-8.24 0-8.842 7.168-16.011 16.011-16.011 5.799 0 10.879 3.084 13.688 7.7l0.040 0.071 48 80c1.427 2.346 2.272 5.184 2.272 8.219 0 0.002 0 0.004 0 0.006v-0 112zM27.52 339.616c-16.887 14.745-27.496 36.314-27.496 60.36 0 44.183 35.817 80 80 80 24.046 0 45.614-10.609 60.279-27.402l0.081-0.094c-48.865-25.173-87.691-63.999-112.189-111.427l-0.675-1.437zM371.616 452.48c14.745 16.887 36.314 27.496 60.36 27.496 44.183 0 80-35.817 80-80 0-24.046-10.609-45.615-27.402-60.279l-0.094-0.081c-25.173 48.865-63.999 87.691-111.427 112.189l-1.437 0.675z" />
<glyph unicode="&#xe903;" glyph-name="alarm" d="M272 336c0 8.837-7.163 16-16 16s-16-7.163-16-16v0-107.584l-45.728-76.16c-1.434-2.352-2.283-5.197-2.283-8.24 0-8.842 7.168-16.011 16.011-16.011 5.799 0 10.879 3.084 13.688 7.7l0.040 0.071 48 80c1.427 2.346 2.272 5.184 2.272 8.219 0 0.002 0 0.004 0 0.006v-0 112zM208 512c-8.837 0-16-7.163-16-16s7.163-16 16-16v0h16v-34.24c-109.182-16.217-191.998-109.302-191.998-221.73 0-72.004 33.968-136.073 86.754-177.058l0.508-0.38-19.264-19.264c-2.902-2.898-4.697-6.904-4.697-11.328 0-8.841 7.168-16.009 16.009-16.009 4.417 0 8.416 1.788 11.312 4.681v0l23.872 23.872c31.423-17.957 69.061-28.544 109.171-28.544 0.117 0 0.234 0 0.352 0h-0.018c0.099 0 0.216 0 0.334 0 40.11 0 77.748 10.587 110.269 29.12l-1.099-0.577 23.872-23.872c2.896-2.892 6.895-4.681 11.312-4.681 8.841 0 16.009 7.168 16.009 16.009 0 4.425-1.795 8.43-4.697 11.328v0l-19.232 19.264c53.291 41.365 87.257 105.433 87.257 177.434 0 112.437-82.829 205.529-190.799 221.584l-1.226 0.149v34.24h16c8.837 0 16 7.163 16 16s-7.163 16-16 16v0h-96zM241.216 415.424c4.425 0.358 9.581 0.562 14.784 0.562s10.358-0.204 15.459-0.604l-0.675 0.042c99.483-7.914 177.216-90.594 177.216-191.43 0-106.038-85.962-192-192-192s-192 85.962-192 192c0 100.836 77.732 183.515 176.543 191.387l0.673 0.043zM0 400c0-24.096 10.656-45.728 27.52-60.384 25.174 48.865 63.999 87.69 111.427 112.189l1.437 0.675c-14.746 16.903-36.325 27.524-60.384 27.524-44.183 0-80-35.817-80-80 0-0.002 0-0.002 0-0.004v0zM432 480c-24.096 0-45.728-10.656-60.384-27.52 48.865-25.173 87.69-63.999 112.189-111.427l0.675-1.437c16.903 14.746 27.523 36.325 27.523 60.384 0 44.183-35.817 80-80 80-0.002 0-0.002 0-0.004 0v0z" />
<glyph unicode="&#xe904;" glyph-name="align-bottom" d="M224 480h64c17.673 0 32-14.327 32-32v-320c0-17.673-14.327-32-32-32h-64c-17.673 0-32 14.327-32 32v320c0 17.673 14.327 32 32 32zM48 64c-8.837 0-16-7.163-16-16s7.163-16 16-16v0 32zM464 32c8.837 0 16 7.163 16 16s-7.163 16-16 16v0-32zM48 32h416v32h-416v-32z" />
<glyph unicode="&#xe905;" glyph-name="align-center" d="M256 480c8.837 0 16-7.163 16-16v0-144h-32v144c0 8.837 7.163 16 16 16v0zM256 32c-8.837 0-16 7.163-16 16v0 144h32v-144c0-8.837-7.163-16-16-16v0zM64 288c0 17.673 14.327 32 32 32v0h320c17.673 0 32-14.327 32-32v0-64c0-17.673-14.327-32-32-32v0h-320c-17.673 0-32 14.327-32 32v0 64z" />
<glyph unicode="&#xe906;" glyph-name="align-end" d="M464 480c-8.837 0-16-7.163-16-16v0-416c0-8.837 7.163-16 16-16s16 7.163 16 16v0 416c0 8.837-7.163 16-16 16v0zM416 288c0 17.673-14.327 32-32 32v0h-320c-17.673 0-32-14.327-32-32v0-64c0-17.673 14.327-32 32-32v0h320c17.673 0 32 14.327 32 32v0 64z" />
<glyph unicode="&#xe907;" glyph-name="align-middle" d="M192 96c0-17.673 14.327-32 32-32v0h64c17.673 0 32 14.327 32 32v0 320c0 17.673-14.327 32-32 32v0h-64c-17.673 0-32-14.327-32-32v0-320zM32 256c0-8.837 7.163-16 16-16v0h144v32h-144c-8.837 0-16-7.163-16-16v0zM480 256c0-8.837-7.163-16-16-16v0h-144v32h144c8.837 0 16-7.163 16-16v0z" />
<glyph unicode="&#xe908;" glyph-name="align-start" d="M48 480c8.837 0 16-7.163 16-16v0-416c0-8.837-7.163-16-16-16s-16 7.163-16 16v0 416c0 8.837 7.163 16 16 16v0zM96 288c0 17.673 14.327 32 32 32v0h320c17.673 0 32-14.327 32-32v0-64c0-17.673-14.327-32-32-32v0h-320c-17.673 0-32 14.327-32 32v0 64z" />
<glyph unicode="&#xe909;" glyph-name="align-top" d="M224 32h64c17.673 0 32 14.327 32 32v320c0 17.673-14.327 32-32 32h-64c-17.673 0-32-14.327-32-32v-320c0-17.673 14.327-32 32-32zM48 448c-8.837 0-16 7.163-16 16s7.163 16 16 16v0-32zM464 480c8.837 0 16-7.163 16-16s-7.163-16-16-16v0 32zM48 480h416v-32h-416v32z" />
<glyph unicode="&#xe90a;" glyph-name="alt" d="M32 80c0-8.837 7.163-16 16-16v0h121.504c0.004 0 0.007 0 0.012 0 6.020 0 11.263 3.325 13.994 8.238l0.042 0.082 168.448 343.68h112c8.837 0 16 7.163 16 16s-7.163 16-16 16v0h-121.504c-0.003 0-0.007 0-0.012 0-6.020 0-11.264-3.325-13.995-8.238l-0.041-0.082-168.448-343.68h-112c-8.837 0-16-7.163-16-16v0zM352 80c0-8.837 7.163-16 16-16v0h96c8.837 0 16 7.163 16 16s-7.163 16-16 16v0h-96c-8.837 0-16-7.163-16-16v0z" />
<glyph unicode="&#xe90b;" glyph-name="app-indicator" d="M176 448c-61.856 0-112-50.144-112-112v0-160c0-61.856 50.144-112 112-112v0h160c61.856 0 112 50.144 112 112v0 80c0 8.837 7.163 16 16 16s16-7.163 16-16v0-80c0-79.529-64.471-144-144-144v0h-160c-79.529 0-144 64.471-144 144v0 160c0 79.529 64.471 144 144 144v0h80c8.837 0 16-7.163 16-16s-7.163-16-16-16v0h-80zM512 416c0-53.019-42.981-96-96-96s-96 42.981-96 96v0c0 53.019 42.981 96 96 96s96-42.981 96-96v0z" />
<glyph unicode="&#xe90c;" glyph-name="app" d="M352 448c53.019 0 96-42.981 96-96v0-192c0-53.019-42.981-96-96-96v0h-192c-53.019 0-96 42.981-96 96v0 192c0 53.019 42.981 96 96 96v0h192zM160 480c-70.692 0-128-57.308-128-128v0-192c0-70.692 57.308-128 128-128v0h192c70.692 0 128 57.308 128 128v0 192c0 70.692-57.308 128-128 128v0h-192z" />
<glyph unicode="&#xe90d;" glyph-name="apple" d="M357.824 511.744c-1.088 1.216-40.288-0.48-74.4-37.504-34.112-36.992-28.864-79.424-28.096-80.512s48.64-2.784 79.2 40.256c30.56 43.040 24.384 76.512 23.296 77.76zM463.872 136.288c-1.536 3.072-74.4 39.488-67.616 109.504 6.784 70.048 53.6 89.248 54.336 91.328s-19.104 25.28-40.128 37.024c-14.475 7.919-31.562 12.951-49.732 13.877l-0.284 0.012c-3.456 0.096-15.456 3.040-40.128-3.712-16.256-4.448-52.896-18.848-62.976-19.424-10.112-0.576-40.192 16.704-72.544 21.28-20.704 4-42.656-4.192-58.368-10.496-15.68-6.272-45.504-24.128-66.368-71.584-20.864-47.424-9.952-122.56-2.144-145.92 7.808-23.328 20-61.568 40.736-89.472 18.432-31.488 42.88-53.344 53.088-60.768s39.008-12.352 58.976-2.144c16.064 9.856 45.056 15.52 56.512 15.104 11.424-0.416 33.952-4.928 57.024-17.248 18.272-6.304 35.552-3.68 52.864 3.36 17.312 7.072 42.368 33.888 71.616 88.256 11.104 25.28 16.16 38.944 15.136 41.024z" />
<glyph unicode="&#xe90e;" glyph-name="archive-fill" d="M404.576 32c42.752 0 75.424 36.96 75.424 80v240h-448v-240c0-43.040 32.672-80 75.424-80h297.152zM176 288h160c8.837 0 16-7.163 16-16s-7.163-16-16-16v0h-160c-8.837 0-16 7.163-16 16s7.163 16 16 16v0zM25.6 480c-14.139 0-25.6-11.462-25.6-25.6v0-38.4c0-14.139 11.461-25.6 25.6-25.6v0h460.8c14.139 0 25.6 11.462 25.6 25.6v0 38.4c0 14.139-11.462 25.6-25.6 25.6v0h-460.8z" />
<glyph unicode="&#xe90f;" glyph-name="archive" d="M0 448c0 17.673 14.327 32 32 32v0h448c17.673 0 32-14.327 32-32v0-64c0-17.673-14.327-32-32-32v0-240c0-44.183-35.817-80-80-80v0h-288c-44.183 0-80 35.817-80 80v0 240c-17.673 0-32 14.327-32 32v0 64zM64 352v-240c0-26.51 21.49-48 48-48v0h288c26.51 0 48 21.49 48 48v0 240h-384zM480 448h-448v-64h448v64zM160 272c0 8.837 7.163 16 16 16v0h160c8.837 0 16-7.163 16-16s-7.163-16-16-16v0h-160c-8.837 0-16 7.163-16 16v0z" />
<glyph unicode="&#xe910;" glyph-name="arrow-90deg-down" d="M155.328 36.672c-2.897-2.904-6.903-4.7-11.328-4.7s-8.431 1.796-11.327 4.7l-128 128c-2.899 2.899-4.692 6.904-4.692 11.328 0 8.848 7.173 16.020 16.020 16.020 4.424 0 8.429-1.793 11.328-4.692l100.672-100.704v313.376c0 44.183 35.817 80 80 80v0h256c8.837 0 16-7.163 16-16s-7.163-16-16-16v0h-256c-26.51 0-48-21.49-48-48v0-313.376l100.672 100.704c2.899 2.899 6.904 4.692 11.328 4.692 8.848 0 16.020-7.173 16.020-16.020 0-4.424-1.793-8.429-4.692-11.328v0l-128-128z" />
<glyph unicode="&#xe911;" glyph-name="arrow-90deg-left" d="M36.672 356.672c-2.904 2.897-4.7 6.902-4.7 11.328s1.797 8.431 4.7 11.327l128.001 128c2.899 2.899 6.904 4.692 11.328 4.692 8.847 0 16.020-7.173 16.020-16.020 0-4.424-1.793-8.429-4.692-11.328l-100.704-100.672h313.376c44.183 0 80-35.817 80-80v0-256c0-8.837-7.163-16-16-16s-16 7.163-16 16v0 256c0 26.51-21.49 48-48 48v0h-313.376l100.704-100.672c2.899-2.899 4.692-6.904 4.692-11.328 0-8.848-7.173-16.020-16.020-16.020-4.424 0-8.429 1.793-11.328 4.692v0l-128 128z" />
<glyph unicode="&#xe912;" glyph-name="arrow-90deg-right" d="M475.328 356.672c2.904 2.897 4.7 6.902 4.7 11.328s-1.796 8.431-4.7 11.327l-128 128c-2.899 2.899-6.904 4.692-11.328 4.692-8.848 0-16.020-7.173-16.020-16.020 0-4.424 1.793-8.429 4.692-11.328l100.704-100.672h-313.376c-44.183 0-80-35.817-80-80v0-256c0-8.837 7.163-16 16-16s16 7.163 16 16v0 256c0 26.51 21.49 48 48 48v0h313.376l-100.704-100.672c-2.899-2.899-4.692-6.904-4.692-11.328 0-8.848 7.173-16.020 16.020-16.020 4.424 0 8.429 1.793 11.328 4.692v0l128 128z" />
<glyph unicode="&#xe913;" glyph-name="arrow-90deg-up" d="M155.328 475.328c-2.897 2.904-6.903 4.701-11.328 4.701s-8.431-1.797-11.327-4.701l-128-128c-2.899-2.899-4.692-6.904-4.692-11.328 0-8.848 7.173-16.020 16.020-16.020 4.424 0 8.429 1.793 11.328 4.692l100.672 100.704v-313.376c0-44.183 35.817-80 80-80v0h256c8.837 0 16 7.163 16 16s-7.163 16-16 16v0h-256c-26.51 0-48 21.49-48 48v0 313.376l100.672-100.704c2.899-2.899 6.904-4.692 11.328-4.692 8.848 0 16.020 7.173 16.020 16.020 0 4.424-1.793 8.429-4.692 11.328v0l-128 128z" />
<glyph unicode="&#xe914;" glyph-name="arrow-bar-down" d="M32 400c0 8.837 7.163 16 16 16v0h416c8.837 0 16-7.163 16-16s-7.163-16-16-16v0h-416c-8.837 0-16 7.163-16 16v0zM256 320c8.837 0 16-7.163 16-16v0-185.376l68.672 68.704c2.899 2.899 6.904 4.692 11.328 4.692 8.848 0 16.020-7.173 16.020-16.020 0-4.424-1.793-8.429-4.692-11.328v0l-96-96c-2.897-2.904-6.902-4.7-11.328-4.7s-8.431 1.796-11.328 4.7l-96 96c-2.899 2.899-4.692 6.904-4.692 11.328 0 8.848 7.173 16.020 16.020 16.020 4.424 0 8.429-1.793 11.328-4.692v0l68.672-68.704v185.376c0 8.837 7.163 16 16 16v0z" />
<glyph unicode="&#xe915;" glyph-name="arrow-bar-left" d="M400 32c-8.837 0-16 7.163-16 16v0 416c0 8.837 7.163 16 16 16s16-7.163 16-16v0-416c0-8.837-7.163-16-16-16v0zM320 256c0-8.837-7.163-16-16-16v0h-185.376l68.704-68.672c2.899-2.899 4.692-6.904 4.692-11.328 0-8.848-7.173-16.020-16.020-16.020-4.424 0-8.429 1.793-11.328 4.692v0l-96 96c-2.904 2.897-4.7 6.902-4.7 11.328s1.797 8.431 4.7 11.328l96 96c2.899 2.899 6.904 4.692 11.328 4.692 8.847 0 16.020-7.173 16.020-16.020 0-4.424-1.793-8.429-4.692-11.328v0l-68.704-68.672h185.376c8.837 0 16-7.163 16-16v0z" />
<glyph unicode="&#xe916;" glyph-name="arrow-bar-right" d="M192 256c0-8.837 7.163-16 16-16v0h185.376l-68.704-68.672c-2.899-2.899-4.692-6.904-4.692-11.328 0-8.848 7.173-16.020 16.020-16.020 4.424 0 8.429 1.793 11.328 4.692v0l96 96c2.904 2.897 4.7 6.902 4.7 11.328s-1.796 8.431-4.7 11.328l-96 96c-2.899 2.899-6.904 4.692-11.328 4.692-8.848 0-16.020-7.173-16.020-16.020 0-4.424 1.793-8.429 4.692-11.328v0l68.704-68.672h-185.376c-8.837 0-16-7.163-16-16v0zM112 32c-8.837 0-16 7.163-16 16v0 416c0 8.837 7.163 16 16 16s16-7.163 16-16v0-416c0-8.837-7.163-16-16-16v0z" />
<glyph unicode="&#xe917;" glyph-name="arrow-bar-up" d="M256 192c8.837 0 16 7.163 16 16v0 185.376l68.672-68.704c2.899-2.899 6.904-4.692 11.328-4.692 8.848 0 16.020 7.173 16.020 16.020 0 4.424-1.793 8.429-4.692 11.328v0l-96 96c-2.897 2.904-6.902 4.7-11.328 4.7s-8.431-1.796-11.328-4.7l-96-96c-2.899-2.899-4.692-6.904-4.692-11.328 0-8.847 7.173-16.020 16.020-16.020 4.424 0 8.429 1.793 11.328 4.692v0l68.672 68.704v-185.376c0-8.837 7.163-16 16-16v0zM32 112c0 8.837 7.163 16 16 16v0h416c8.837 0 16-7.163 16-16s-7.163-16-16-16v0h-416c-8.837 0-16 7.163-16 16v0z" />
<glyph unicode="&#xe918;" glyph-name="arrow-clockwise" d="M256 416c-88.339-0.035-159.939-71.656-159.939-160 0-88.365 71.635-160 160-160s160 71.635 160 160c0 24.21-5.377 47.164-15.002 67.734l0.413-0.982c-0.76 1.798-1.201 3.889-1.201 6.082 0 8.837 7.163 16 16 16 6.187 0 11.553-3.511 14.215-8.649l0.042-0.089c11.053-23.504 17.505-51.047 17.505-80.096 0-106.038-85.962-192-192-192s-192 85.962-192 192c0 106.027 85.943 191.981 191.965 192h0.001v-32zM256 369.088v125.824c0.002 4.417 3.583 7.997 8 7.997 1.954 0 3.743-0.7 5.132-1.863l-0.012 0.010 75.52-62.912c3.84-3.2 3.84-9.088 0-12.288l-75.52-62.912c-1.377-1.153-3.166-1.853-5.12-1.853-4.417 0-7.998 3.58-8 7.997v0z" />
<glyph unicode="&#xe919;" glyph-name="arrow-counterclockwise" d="M256 416c88.339-0.035 159.938-71.656 159.938-160 0-88.365-71.635-160-160-160s-160 71.635-160 160c0 24.21 5.377 47.164 15.002 67.734l-0.412-0.982c0.76 1.798 1.201 3.889 1.201 6.082 0 8.837-7.163 16-16 16-6.186 0-11.552-3.511-14.215-8.649l-0.042-0.089c-11.053-23.504-17.505-51.047-17.505-80.096 0-106.038 85.962-192 192-192s192 85.962 192 192c0 106.027-85.943 191.981-191.966 192h-0.002v-32zM256 369.088v125.824c-0.001 4.417-3.583 7.997-8 7.997-1.953 0-3.744-0.7-5.132-1.863l0.012 0.010-75.52-62.912c-1.763-1.478-2.876-3.681-2.876-6.144s1.113-4.667 2.864-6.134l0.012-0.010 75.52-62.912c1.376-1.153 3.167-1.853 5.12-1.853 4.417 0 7.999 3.58 8 7.997v0z" />
<glyph unicode="&#xe91a;" glyph-name="arrow-down-circle-fill" d="M512 256c0-141.385-114.615-256-256-256s-256 114.615-256 256v0c0 141.385 114.615 256 256 256s256-114.615 256-256v0zM272 368c0 8.837-7.163 16-16 16s-16-7.163-16-16v0-185.376l-68.672 68.704c-2.899 2.899-6.904 4.692-11.328 4.692-8.847 0-16.020-7.173-16.020-16.020 0-4.424 1.793-8.429 4.692-11.328v0l96-96c2.897-2.904 6.903-4.7 11.328-4.7s8.431 1.796 11.327 4.7l96 96c2.899 2.899 4.692 6.904 4.692 11.328 0 8.848-7.173 16.020-16.020 16.020-4.424 0-8.429-1.793-11.328-4.692v0l-68.672-68.704v185.376z" />
<glyph unicode="&#xe91b;" glyph-name="arrow-down-circle" d="M32 256c0-123.712 100.288-224 224-224s224 100.288 224 224v0c0 123.712-100.288 224-224 224s-224-100.288-224-224v0zM512 256c0-141.385-114.615-256-256-256s-256 114.615-256 256v0c0 141.385 114.615 256 256 256s256-114.615 256-256v0zM272 368c0 8.837-7.163 16-16 16s-16-7.163-16-16v0-185.376l-68.672 68.704c-2.899 2.899-6.904 4.692-11.328 4.692-8.847 0-16.020-7.173-16.020-16.020 0-4.424 1.793-8.429 4.692-11.328v0l96-96c2.897-2.904 6.903-4.7 11.328-4.7s8.431 1.796 11.327 4.7l96 96c2.899 2.899 4.692 6.904 4.692 11.328 0 8.848-7.173 16.020-16.020 16.020-4.424 0-8.429-1.793-11.328-4.692v0l-68.672-68.704v185.376z" />
<glyph unicode="&#xe91c;" glyph-name="arrow-down-left-circle-fill" d="M512 256c0 141.385-114.615 256-256 256s-256-114.615-256-256v0c0-141.385 114.615-256 256-256s256 114.615 256 256v0zM323.072 345.696c2.913 3.013 6.993 4.885 11.509 4.885 8.837 0 16-7.163 16-16 0-4.516-1.871-8.595-4.88-11.505l-131.077-131.077h88.576c8.837 0 16-7.163 16-16s-7.163-16-16-16v0h-127.2c-8.837 0-16 7.163-16 16v0 127.2c0 8.837 7.163 16 16 16s16-7.163 16-16v0-88.576l131.072 131.072z" />
<glyph unicode="&#xe91d;" glyph-name="arrow-down-left-circle" d="M32 256c0-123.712 100.288-224 224-224s224 100.288 224 224v0c0 123.712-100.288 224-224 224s-224-100.288-224-224v0zM512 256c0-141.385-114.615-256-256-256s-256 114.615-256 256v0c0 141.385 114.615 256 256 256s256-114.615 256-256v0zM323.072 347.328c2.896 2.893 6.895 4.681 11.312 4.681 8.841 0 16.009-7.168 16.009-16.009 0-4.424-1.795-8.43-4.697-11.328v0l-131.072-131.072h88.576c8.837 0 16-7.163 16-16s-7.163-16-16-16v0h-127.2c-8.837 0-16 7.163-16 16v0 127.2c0 8.837 7.163 16 16 16s16-7.163 16-16v0-88.576l131.072 131.104z" />
<glyph unicode="&#xe91e;" glyph-name="arrow-down-left-square-fill" d="M64 0c-35.346 0-64 28.654-64 64v0 384c0 35.346 28.654 64 64 64v0h384c35.346 0 64-28.654 64-64v0-384c0-35.346-28.654-64-64-64v0h-384zM323.072 345.696l-131.072-131.072v88.576c0 8.837-7.163 16-16 16s-16-7.163-16-16v0-127.2c0-8.837 7.163-16 16-16v0h127.2c8.837 0 16 7.163 16 16s-7.163 16-16 16v0h-88.576l131.072 131.072c3.014 2.913 4.885 6.993 4.885 11.509 0 8.837-7.163 16-16 16-4.516 0-8.595-1.871-11.505-4.88l-0.005-0.005z" />
<glyph unicode="&#xe91f;" glyph-name="arrow-down-left-square" d="M480 448c0 17.673-14.327 32-32 32v0h-384c-17.673 0-32-14.327-32-32v0-384c0-17.673 14.327-32 32-32v0h384c17.673 0 32 14.327 32 32v0 384zM0 448c0 35.346 28.654 64 64 64v0h384c35.346 0 64-28.654 64-64v0-384c0-35.346-28.654-64-64-64v0h-384c-35.346 0-64 28.654-64 64v0 384zM323.072 347.328c2.896 2.893 6.895 4.681 11.312 4.681 8.841 0 16.009-7.168 16.009-16.009 0-4.424-1.795-8.43-4.697-11.328v0l-131.072-131.072h88.576c8.837 0 16-7.163 16-16s-7.163-16-16-16v0h-127.2c-8.837 0-16 7.163-16 16v0 127.2c0 8.837 7.163 16 16 16s16-7.163 16-16v0-88.576l131.072 131.104z" />
<glyph unicode="&#xe920;" glyph-name="arrow-down-left" d="M64 80c0-8.837 7.163-16 16-16v0h192c8.837 0 16 7.163 16 16s-7.163 16-16 16v0h-153.376l324.704 324.672c2.899 2.899 4.692 6.904 4.692 11.328 0 8.848-7.173 16.020-16.020 16.020-4.424 0-8.429-1.793-11.328-4.692v0l-324.672-324.704v153.376c0 8.837-7.163 16-16 16s-16-7.163-16-16v0-192z" />
<glyph unicode="&#xe921;" glyph-name="arrow-down-right-circle-fill" d="M0 256c0 141.385 114.615 256 256 256s256-114.615 256-256v0c0-141.385-114.615-256-256-256s-256 114.615-256 256v0zM188.928 345.696c-2.913 3.013-6.993 4.885-11.508 4.885-8.837 0-16-7.163-16-16 0-4.516 1.871-8.595 4.88-11.505l131.076-131.077h-88.576c-8.837 0-16-7.163-16-16s7.163-16 16-16v0h127.2c8.837 0 16 7.163 16 16v0 127.2c0 8.837-7.163 16-16 16s-16-7.163-16-16v0-88.576l-131.072 131.072z" />
<glyph unicode="&#xe922;" glyph-name="arrow-down-right-circle" d="M32 256c0-123.712 100.288-224 224-224s224 100.288 224 224v0c0 123.712-100.288 224-224 224s-224-100.288-224-224v0zM512 256c0-141.385-114.615-256-256-256s-256 114.615-256 256v0c0 141.385 114.615 256 256 256s256-114.615 256-256v0zM187.328 347.328c-2.899 2.899-6.904 4.692-11.328 4.692-8.847 0-16.020-7.173-16.020-16.020 0-4.424 1.793-8.429 4.692-11.328v0l131.104-131.072h-88.576c-8.837 0-16-7.163-16-16s7.163-16 16-16v0h127.2c8.837 0 16 7.163 16 16v0 127.2c0 8.837-7.163 16-16 16s-16-7.163-16-16v0-88.576l-131.072 131.104z" />
<glyph unicode="&#xe923;" glyph-name="arrow-down-right-square-fill" d="M448 0c35.346 0 64 28.654 64 64v0 384c0 35.346-28.654 64-64 64v0h-384c-35.346 0-64-28.654-64-64v0-384c0-35.346 28.654-64 64-64v0h384zM188.928 345.696l131.072-131.072v88.576c0 8.837 7.163 16 16 16s16-7.163 16-16v0-127.2c0-8.837-7.163-16-16-16v0h-127.2c-8.837 0-16 7.163-16 16s7.163 16 16 16v0h88.576l-131.072 131.072c-2.779 2.875-4.492 6.795-4.492 11.115 0 8.837 7.163 16 16 16 4.321 0 8.241-1.712 11.12-4.495l-0.005 0.005z" />
<glyph unicode="&#xe924;" glyph-name="arrow-down-right-square" d="M480 448c0 17.673-14.327 32-32 32v0h-384c-17.673 0-32-14.327-32-32v0-384c0-17.673 14.327-32 32-32v0h384c17.673 0 32 14.327 32 32v0 384zM0 448c0 35.346 28.654 64 64 64v0h384c35.346 0 64-28.654 64-64v0-384c0-35.346-28.654-64-64-64v0h-384c-35.346 0-64 28.654-64 64v0 384zM187.328 347.328c-2.899 2.899-6.904 4.692-11.328 4.692-8.847 0-16.020-7.173-16.020-16.020 0-4.424 1.793-8.429 4.692-11.328v0l131.104-131.072h-88.576c-8.837 0-16-7.163-16-16s7.163-16 16-16v0h127.2c8.837 0 16 7.163 16 16v0 127.2c0 8.837-7.163 16-16 16s-16-7.163-16-16v0-88.576l-131.072 131.104z" />
<glyph unicode="&#xe925;" glyph-name="arrow-down-right" d="M448 80c0-8.837-7.163-16-16-16v0h-192c-8.837 0-16 7.163-16 16s7.163 16 16 16v0h153.376l-324.704 324.672c-2.899 2.899-4.692 6.904-4.692 11.328 0 8.848 7.173 16.020 16.020 16.020 4.424 0 8.429-1.793 11.328-4.692v0l324.672-324.704v153.376c0 8.837 7.163 16 16 16s16-7.163 16-16v0-192z" />
<glyph unicode="&#xe926;" glyph-name="arrow-down-short" d="M256 384c8.837 0 16-7.163 16-16v0-185.376l68.672 68.704c2.899 2.899 6.904 4.692 11.328 4.692 8.848 0 16.020-7.173 16.020-16.020 0-4.424-1.793-8.429-4.692-11.328v0l-96-96c-2.897-2.904-6.902-4.7-11.328-4.7s-8.431 1.796-11.328 4.7l-96 96c-2.899 2.899-4.692 6.904-4.692 11.328 0 8.848 7.173 16.020 16.020 16.020 4.424 0 8.429-1.793 11.328-4.692v0l68.672-68.704v185.376c0 8.837 7.163 16 16 16v0z" />
<glyph unicode="&#xe927;" glyph-name="arrow-down-square-fill" d="M64 512c-35.346 0-64-28.654-64-64v0-384c0-35.346 28.654-64 64-64v0h384c35.346 0 64 28.654 64 64v0 384c0 35.346-28.654 64-64 64v0h-384zM272 368v-185.376l68.672 68.704c2.899 2.899 6.904 4.692 11.328 4.692 8.848 0 16.020-7.173 16.020-16.020 0-4.424-1.793-8.429-4.692-11.328v0l-96-96c-2.897-2.904-6.902-4.7-11.328-4.7s-8.431 1.796-11.328 4.7l-96 96c-2.899 2.899-4.692 6.904-4.692 11.328 0 8.848 7.173 16.020 16.020 16.020 4.424 0 8.429-1.793 11.328-4.692v0l68.672-68.704v185.376c0 8.837 7.163 16 16 16s16-7.163 16-16v0z" />
<glyph unicode="&#xe928;" glyph-name="arrow-down-square" d="M480 448c0 17.673-14.327 32-32 32v0h-384c-17.673 0-32-14.327-32-32v0-384c0-17.673 14.327-32 32-32v0h384c17.673 0 32 14.327 32 32v0 384zM0 448c0 35.346 28.654 64 64 64v0h384c35.346 0 64-28.654 64-64v0-384c0-35.346-28.654-64-64-64v0h-384c-35.346 0-64 28.654-64 64v0 384zM272 368c0 8.837-7.163 16-16 16s-16-7.163-16-16v0-185.376l-68.672 68.704c-2.899 2.899-6.904 4.692-11.328 4.692-8.847 0-16.020-7.173-16.020-16.020 0-4.424 1.793-8.429 4.692-11.328v0l96-96c2.897-2.904 6.903-4.7 11.328-4.7s8.431 1.796 11.327 4.7l96 96c2.899 2.899 4.692 6.904 4.692 11.328 0 8.848-7.173 16.020-16.020 16.020-4.424 0-8.429-1.793-11.328-4.692v0l-68.672-68.704v185.376z" />
<glyph unicode="&#xe929;" glyph-name="arrow-down-up" d="M368 32c8.837 0 16 7.163 16 16v0 377.376l100.672-100.704c2.899-2.899 6.904-4.692 11.328-4.692 8.848 0 16.020 7.173 16.020 16.020 0 4.424-1.793 8.429-4.692 11.328v0l-128 128c-2.897 2.904-6.902 4.7-11.328 4.7s-8.431-1.796-11.327-4.7l-128-128c-2.899-2.899-4.692-6.904-4.692-11.328 0-8.848 7.173-16.020 16.020-16.020 4.424 0 8.429 1.793 11.328 4.692v0l100.672 100.704v-377.376c0-8.837 7.163-16 16-16v0zM144 480c8.837 0 16-7.163 16-16v0-377.376l100.672 100.704c2.899 2.899 6.904 4.692 11.328 4.692 8.848 0 16.020-7.173 16.020-16.020 0-4.424-1.793-8.429-4.692-11.328v0l-128-128c-2.897-2.904-6.903-4.7-11.328-4.7s-8.431 1.796-11.328 4.7l-128 128c-2.899 2.899-4.692 6.904-4.692 11.328 0 8.848 7.173 16.020 16.020 16.020 4.424 0 8.429-1.793 11.328-4.692l100.672-100.704v377.376c0 8.837 7.163 16 16 16v0z" />
<glyph unicode="&#xe92a;" glyph-name="arrow-down" d="M256 480c8.837 0 16-7.163 16-16v0-377.376l100.672 100.704c2.899 2.899 6.904 4.692 11.328 4.692 8.848 0 16.020-7.173 16.020-16.020 0-4.424-1.793-8.429-4.692-11.328v0l-128-128c-2.897-2.904-6.902-4.7-11.328-4.7s-8.431 1.796-11.328 4.7l-128 128c-2.899 2.899-4.692 6.904-4.692 11.328 0 8.848 7.172 16.020 16.020 16.020 4.424 0 8.429-1.793 11.328-4.692v0l100.672-100.704v377.376c0 8.837 7.163 16 16 16v0z" />
<glyph unicode="&#xe92b;" glyph-name="arrow-left-circle-fill" d="M256 512c-141.385 0-256-114.615-256-256s114.615-256 256-256v0c141.385 0 256 114.615 256 256s-114.615 256-256 256v0zM368 272c8.837 0 16-7.163 16-16s-7.163-16-16-16v0h-185.376l68.704-68.672c2.899-2.899 4.692-6.904 4.692-11.328 0-8.848-7.173-16.020-16.020-16.020-4.424 0-8.429 1.793-11.328 4.692v0l-96 96c-2.904 2.897-4.701 6.902-4.701 11.328s1.797 8.431 4.701 11.328l96 96c2.899 2.899 6.904 4.692 11.328 4.692 8.847 0 16.020-7.173 16.020-16.020 0-4.424-1.793-8.429-4.692-11.328v0l-68.704-68.672h185.376z" />
<glyph unicode="&#xe92c;" glyph-name="arrow-left-circle" d="M32 256c0-123.712 100.288-224 224-224s224 100.288 224 224v0c0 123.712-100.288 224-224 224s-224-100.288-224-224v0zM512 256c0-141.385-114.615-256-256-256s-256 114.615-256 256v0c0 141.385 114.615 256 256 256s256-114.615 256-256v0zM368 272c8.837 0 16-7.163 16-16s-7.163-16-16-16v0h-185.376l68.704-68.672c2.899-2.899 4.692-6.904 4.692-11.328 0-8.848-7.173-16.020-16.020-16.020-4.424 0-8.429 1.793-11.328 4.692v0l-96 96c-2.904 2.897-4.701 6.902-4.701 11.328s1.797 8.431 4.701 11.328l96 96c2.899 2.899 6.904 4.692 11.328 4.692 8.847 0 16.020-7.173 16.020-16.020 0-4.424-1.793-8.429-4.692-11.328v0l-68.704-68.672h185.376z" />
<glyph unicode="&#xe92d;" glyph-name="arrow-left-right" d="M32 144c0-8.837 7.163-16 16-16v0h377.376l-100.704-100.672c-2.899-2.899-4.692-6.904-4.692-11.328 0-8.848 7.173-16.020 16.020-16.020 4.424 0 8.429 1.793 11.328 4.692v0l128 128c2.904 2.897 4.7 6.902 4.7 11.328s-1.796 8.431-4.7 11.327l-128 128c-2.899 2.899-6.904 4.692-11.328 4.692-8.848 0-16.020-7.173-16.020-16.020 0-4.424 1.793-8.429 4.692-11.328v0l100.704-100.672h-377.376c-8.837 0-16-7.163-16-16v0zM480 368c0-8.837-7.163-16-16-16v0h-377.376l100.704-100.672c2.899-2.899 4.692-6.904 4.692-11.328 0-8.848-7.173-16.020-16.020-16.020-4.424 0-8.429 1.793-11.328 4.692v0l-128 128c-2.904 2.897-4.7 6.903-4.7 11.328s1.797 8.431 4.7 11.328l128 128c2.899 2.899 6.904 4.692 11.328 4.692 8.847 0 16.020-7.172 16.020-16.020 0-4.424-1.793-8.429-4.692-11.328l-100.704-100.672h377.376c8.837 0 16-7.163 16-16v0z" />
<glyph unicode="&#xe92e;" glyph-name="arrow-left-short" d="M384 256c0-8.837-7.163-16-16-16v0h-185.376l68.704-68.672c2.899-2.899 4.692-6.904 4.692-11.328 0-8.848-7.173-16.020-16.020-16.020-4.424 0-8.429 1.793-11.328 4.692v0l-96 96c-2.904 2.897-4.701 6.902-4.701 11.328s1.797 8.431 4.701 11.328l96 96c2.899 2.899 6.904 4.692 11.328 4.692 8.847 0 16.020-7.173 16.020-16.020 0-4.424-1.793-8.429-4.692-11.328v0l-68.704-68.672h185.376c8.837 0 16-7.163 16-16v0z" />
<glyph unicode="&#xe92f;" glyph-name="arrow-left-square-fill" d="M512 64c0-35.346-28.654-64-64-64v0h-384c-35.346 0-64 28.654-64 64v0 384c0 35.346 28.654 64 64 64v0h384c35.346 0 64-28.654 64-64v0-384zM368 272h-185.376l68.704 68.672c2.899 2.899 4.692 6.904 4.692 11.328 0 8.847-7.173 16.020-16.020 16.020-4.424 0-8.429-1.793-11.328-4.692v0l-96-96c-2.904-2.897-4.701-6.902-4.701-11.328s1.797-8.431 4.701-11.327l96-96c2.899-2.899 6.904-4.692 11.328-4.692 8.847 0 16.020 7.173 16.020 16.020 0 4.424-1.793 8.429-4.692 11.328v0l-68.704 68.672h185.376c8.837 0 16 7.163 16 16s-7.163 16-16 16v0z" />
<glyph unicode="&#xe930;" glyph-name="arrow-left-square" d="M480 448c0 17.673-14.327 32-32 32v0h-384c-17.673 0-32-14.327-32-32v0-384c0-17.673 14.327-32 32-32v0h384c17.673 0 32 14.327 32 32v0 384zM0 448c0 35.346 28.654 64 64 64v0h384c35.346 0 64-28.654 64-64v0-384c0-35.346-28.654-64-64-64v0h-384c-35.346 0-64 28.654-64 64v0 384zM368 272c8.837 0 16-7.163 16-16s-7.163-16-16-16v0h-185.376l68.704-68.672c2.899-2.899 4.692-6.904 4.692-11.328 0-8.848-7.173-16.020-16.020-16.020-4.424 0-8.429 1.793-11.328 4.692v0l-96 96c-2.904 2.897-4.701 6.902-4.701 11.328s1.797 8.431 4.701 11.328l96 96c2.899 2.899 6.904 4.692 11.328 4.692 8.847 0 16.020-7.173 16.020-16.020 0-4.424-1.793-8.429-4.692-11.328v0l-68.704-68.672h185.376z" />
<glyph unicode="&#xe931;" glyph-name="arrow-left" d="M480 256c0 8.837-7.163 16-16 16v0h-377.376l100.704 100.672c2.899 2.899 4.692 6.904 4.692 11.328 0 8.847-7.173 16.020-16.020 16.020-4.424 0-8.429-1.793-11.328-4.692v0l-128-128c-2.904-2.897-4.7-6.902-4.7-11.328s1.797-8.431 4.7-11.327l128-128c2.899-2.899 6.904-4.692 11.328-4.692 8.847 0 16.020 7.173 16.020 16.020 0 4.424-1.793 8.429-4.692 11.328v0l-100.704 100.672h377.376c8.837 0 16 7.163 16 16v0z" />
<glyph unicode="&#xe932;" glyph-name="arrow-repeat" d="M369.088 288h125.824c4.417-0.001 7.997-3.583 7.997-8 0-1.953-0.7-3.744-1.863-5.132l0.010 0.012-62.912-75.52c-1.478-1.763-3.681-2.877-6.144-2.877s-4.666 1.113-6.134 2.864l-0.010 0.012-62.912 75.52c-1.153 1.377-1.853 3.166-1.853 5.12 0 4.417 3.58 7.998 7.997 8v0zM17.088 224h125.824c4.417 0.002 7.997 3.583 7.997 8 0 1.954-0.7 3.743-1.863 5.132l0.010-0.012-62.912 75.52c-1.478 1.763-3.681 2.876-6.144 2.876s-4.666-1.113-6.134-2.864l-0.010-0.012-62.912-75.52c-1.153-1.377-1.853-3.166-1.853-5.12 0-4.417 3.58-7.998 7.997-8v0zM256 416c-49.664 0-94.080-22.624-123.424-58.176-2.954-3.803-7.528-6.226-12.668-6.226-8.837 0-16 7.163-16 16 0 4.064 1.515 7.774 4.011 10.595l-0.015-0.017c35.484 42.739 88.629 69.753 148.083 69.753 94.722 0 173.429-68.57 189.19-158.78l0.166-1.15h-32.544c-15.433 73.552-79.757 127.99-156.799 128h-0.001zM99.2 224c15.451-73.538 79.776-127.958 156.811-127.958 49.55 0 93.841 22.514 123.201 57.871l0.212 0.263c2.954 3.803 7.528 6.226 12.668 6.226 8.837 0 16-7.163 16-16 0-4.063-1.515-7.774-4.010-10.596l0.015 0.017c-35.485-42.739-88.629-69.754-148.083-69.754-94.722 0-173.429 68.57-189.19 158.779l-0.166 1.15h32.544z" />
<glyph unicode="&#xe933;" glyph-name="arrow-return-left" d="M464 464c8.837 0 16-7.163 16-16v0-153.6c0-44.183-35.817-80-80-80v0h-313.376l107.104-107.072c2.899-2.899 4.692-6.904 4.692-11.328 0-8.848-7.173-16.020-16.020-16.020-4.424 0-8.429 1.793-11.328 4.692v0l-134.4 134.4c-2.904 2.897-4.7 6.902-4.7 11.328s1.797 8.431 4.7 11.327l128.001 128c2.899 2.899 6.904 4.692 11.328 4.692 8.847 0 16.020-7.173 16.020-16.020 0-4.424-1.793-8.429-4.692-11.328v0l-100.704-100.672h313.376c26.51 0 48 21.49 48 48v153.6c0 8.837 7.163 16 16 16v0z" />
<glyph unicode="&#xe934;" glyph-name="arrow-return-right" d="M48 464c-8.837 0-16-7.163-16-16v0-153.6c0-44.183 35.817-80 80-80v0h313.376l-107.104-107.072c-2.899-2.899-4.692-6.904-4.692-11.328 0-8.848 7.173-16.020 16.020-16.020 4.424 0 8.429 1.793 11.328 4.692v0l134.4 134.4c2.904 2.897 4.7 6.902 4.7 11.328s-1.796 8.431-4.7 11.327l-128 128c-2.899 2.899-6.904 4.692-11.328 4.692-8.848 0-16.020-7.173-16.020-16.020 0-4.424 1.793-8.429 4.692-11.328v0l100.704-100.672h-313.376c-26.51 0-48 21.49-48 48v153.6c0 8.837-7.163 16-16 16v0z" />
<glyph unicode="&#xe935;" glyph-name="arrow-right-circle-fill" d="M256 512c141.385 0 256-114.615 256-256s-114.615-256-256-256v0c-141.385 0-256 114.615-256 256s114.615 256 256 256v0zM144 272c-8.837 0-16-7.163-16-16s7.163-16 16-16v0h185.376l-68.704-68.672c-2.899-2.899-4.692-6.904-4.692-11.328 0-8.848 7.173-16.020 16.020-16.020 4.424 0 8.429 1.793 11.328 4.692v0l96 96c2.904 2.897 4.7 6.902 4.7 11.328s-1.796 8.431-4.7 11.328l-96 96c-2.899 2.899-6.904 4.692-11.328 4.692-8.848 0-16.020-7.173-16.020-16.020 0-4.424 1.793-8.429 4.692-11.328v0l68.704-68.672h-185.376z" />
<glyph unicode="&#xe936;" glyph-name="arrow-right-circle" d="M32 256c0-123.712 100.288-224 224-224s224 100.288 224 224v0c0 123.712-100.288 224-224 224s-224-100.288-224-224v0zM512 256c0-141.385-114.615-256-256-256s-256 114.615-256 256v0c0 141.385 114.615 256 256 256s256-114.615 256-256v0zM144 272c-8.837 0-16-7.163-16-16s7.163-16 16-16v0h185.376l-68.704-68.672c-2.899-2.899-4.692-6.904-4.692-11.328 0-8.848 7.173-16.020 16.020-16.020 4.424 0 8.429 1.793 11.328 4.692v0l96 96c2.904 2.897 4.7 6.902 4.7 11.328s-1.796 8.431-4.7 11.328l-96 96c-2.899 2.899-6.904 4.692-11.328 4.692-8.848 0-16.020-7.173-16.020-16.020 0-4.424 1.793-8.429 4.692-11.328v0l68.704-68.672h-185.376z" />
<glyph unicode="&#xe937;" glyph-name="arrow-right-short" d="M128 256c0 8.837 7.163 16 16 16v0h185.376l-68.704 68.672c-2.899 2.899-4.692 6.904-4.692 11.328 0 8.847 7.173 16.020 16.020 16.020 4.424 0 8.429-1.793 11.328-4.692v0l96-96c2.904-2.897 4.7-6.902 4.7-11.328s-1.796-8.431-4.7-11.327l-96-96c-2.899-2.899-6.904-4.692-11.328-4.692-8.848 0-16.020 7.173-16.020 16.020 0 4.424 1.793 8.429 4.692 11.328v0l68.704 68.672h-185.376c-8.837 0-16 7.163-16 16v0z" />
<glyph unicode="&#xe938;" glyph-name="arrow-right-square-fill" d="M0 64c0-35.346 28.654-64 64-64v0h384c35.346 0 64 28.654 64 64v0 384c0 35.346-28.654 64-64 64v0h-384c-35.346 0-64-28.654-64-64v0-384zM144 272h185.376l-68.704 68.672c-2.899 2.899-4.692 6.904-4.692 11.328 0 8.847 7.173 16.020 16.020 16.020 4.424 0 8.429-1.793 11.328-4.692v0l96-96c2.904-2.897 4.7-6.902 4.7-11.328s-1.796-8.431-4.7-11.327l-96-96c-2.899-2.899-6.904-4.692-11.328-4.692-8.848 0-16.020 7.173-16.020 16.020 0 4.424 1.793 8.429 4.692 11.328v0l68.704 68.672h-185.376c-8.837 0-16 7.163-16 16s7.163 16 16 16v0z" />
<glyph unicode="&#xe939;" glyph-name="arrow-right-square" d="M480 448c0 17.673-14.327 32-32 32v0h-384c-17.673 0-32-14.327-32-32v0-384c0-17.673 14.327-32 32-32v0h384c17.673 0 32 14.327 32 32v0 384zM0 448c0 35.346 28.654 64 64 64v0h384c35.346 0 64-28.654 64-64v0-384c0-35.346-28.654-64-64-64v0h-384c-35.346 0-64 28.654-64 64v0 384zM144 272c-8.837 0-16-7.163-16-16s7.163-16 16-16v0h185.376l-68.704-68.672c-2.899-2.899-4.692-6.904-4.692-11.328 0-8.848 7.173-16.020 16.020-16.020 4.424 0 8.429 1.793 11.328 4.692v0l96 96c2.904 2.897 4.7 6.902 4.7 11.328s-1.796 8.431-4.7 11.328l-96 96c-2.899 2.899-6.904 4.692-11.328 4.692-8.848 0-16.020-7.173-16.020-16.020 0-4.424 1.793-8.429 4.692-11.328v0l68.704-68.672h-185.376z" />
<glyph unicode="&#xe93a;" glyph-name="arrow-right" d="M32 256c0 8.837 7.163 16 16 16v0h377.376l-100.704 100.672c-2.899 2.899-4.692 6.904-4.692 11.328 0 8.847 7.173 16.020 16.020 16.020 4.424 0 8.429-1.793 11.328-4.692v0l128-128c2.904-2.897 4.7-6.902 4.7-11.328s-1.796-8.431-4.7-11.327l-128-128c-2.899-2.899-6.904-4.692-11.328-4.692-8.848 0-16.020 7.173-16.020 16.020 0 4.424 1.793 8.429 4.692 11.328v0l100.704 100.672h-377.376c-8.837 0-16 7.163-16 16v0z" />
<glyph unicode="&#xe93b;" glyph-name="arrow-up-circle-fill" d="M512 256c0 141.385-114.615 256-256 256s-256-114.615-256-256v0c0-141.385 114.615-256 256-256s256 114.615 256 256v0zM272 144c0-8.837-7.163-16-16-16s-16 7.163-16 16v0 185.376l-68.672-68.704c-2.899-2.899-6.904-4.692-11.328-4.692-8.847 0-16.020 7.173-16.020 16.020 0 4.424 1.793 8.429 4.692 11.328v0l96 96c2.897 2.904 6.903 4.7 11.328 4.7s8.431-1.796 11.327-4.7l96-96c2.899-2.899 4.692-6.904 4.692-11.328 0-8.847-7.173-16.020-16.020-16.020-4.424 0-8.429 1.793-11.328 4.692v0l-68.672 68.704v-185.376z" />
<glyph unicode="&#xe93c;" glyph-name="arrow-up-circle" d="M32 256c0-123.712 100.288-224 224-224s224 100.288 224 224v0c0 123.712-100.288 224-224 224s-224-100.288-224-224v0zM512 256c0-141.385-114.615-256-256-256s-256 114.615-256 256v0c0 141.385 114.615 256 256 256s256-114.615 256-256v0zM272 144c0-8.837-7.163-16-16-16s-16 7.163-16 16v0 185.376l-68.672-68.704c-2.899-2.899-6.904-4.692-11.328-4.692-8.847 0-16.020 7.173-16.020 16.020 0 4.424 1.793 8.429 4.692 11.328v0l96 96c2.897 2.904 6.903 4.7 11.328 4.7s8.431-1.796 11.327-4.7l96-96c2.899-2.899 4.692-6.904 4.692-11.328 0-8.847-7.173-16.020-16.020-16.020-4.424 0-8.429 1.793-11.328 4.692v0l-68.672 68.704v-185.376z" />
<glyph unicode="&#xe93d;" glyph-name="arrow-up-left-circle-fill" d="M512 256c0-141.385-114.615-256-256-256s-256 114.615-256 256v0c0 141.385 114.615 256 256 256s256-114.615 256-256v0zM323.072 166.304c2.913-3.014 6.993-4.885 11.509-4.885 8.837 0 16 7.163 16 16 0 4.516-1.871 8.595-4.88 11.505l-131.077 131.077h88.576c8.837 0 16 7.163 16 16s-7.163 16-16 16v0h-127.2c-8.837 0-16-7.163-16-16v0-127.2c0-8.837 7.163-16 16-16s16 7.163 16 16v0 88.576l131.072-131.072z" />
<glyph unicode="&#xe93e;" glyph-name="arrow-up-left-circle" d="M32 256c0-123.712 100.288-224 224-224s224 100.288 224 224v0c0 123.712-100.288 224-224 224s-224-100.288-224-224v0zM512 256c0-141.385-114.615-256-256-256s-256 114.615-256 256v0c0 141.385 114.615 256 256 256s256-114.615 256-256v0zM323.072 166.304c2.913-3.014 6.993-4.885 11.509-4.885 8.837 0 16 7.163 16 16 0 4.516-1.871 8.595-4.88 11.505l-131.077 131.077h88.576c8.837 0 16 7.163 16 16s-7.163 16-16 16v0h-127.2c-8.837 0-16-7.163-16-16v0-127.2c0-8.837 7.163-16 16-16s16 7.163 16 16v0 88.576l131.072-131.072z" />
<glyph unicode="&#xe93f;" glyph-name="arrow-up-left-square-fill" d="M64 512c-35.346 0-64-28.654-64-64v0-384c0-35.346 28.654-64 64-64v0h384c35.346 0 64 28.654 64 64v0 384c0 35.346-28.654 64-64 64v0h-384zM323.072 166.304l-131.072 131.072v-88.576c0-8.837-7.163-16-16-16s-16 7.163-16 16v0 127.2c0 8.837 7.163 16 16 16v0h127.2c8.837 0 16-7.163 16-16s-7.163-16-16-16v0h-88.576l131.072-131.072c3.014-2.913 4.885-6.993 4.885-11.509 0-8.837-7.163-16-16-16-4.516 0-8.595 1.871-11.505 4.88l-0.005 0.005z" />
<glyph unicode="&#xe940;" glyph-name="arrow-up-left-square" d="M480 448c0 17.673-14.327 32-32 32v0h-384c-17.673 0-32-14.327-32-32v0-384c0-17.673 14.327-32 32-32v0h384c17.673 0 32 14.327 32 32v0 384zM0 448c0 35.346 28.654 64 64 64v0h384c35.346 0 64-28.654 64-64v0-384c0-35.346-28.654-64-64-64v0h-384c-35.346 0-64 28.654-64 64v0 384zM323.072 166.304c2.913-3.014 6.993-4.885 11.509-4.885 8.837 0 16 7.163 16 16 0 4.516-1.871 8.595-4.88 11.505l-131.077 131.077h88.576c8.837 0 16 7.163 16 16s-7.163 16-16 16v0h-127.2c-8.837 0-16-7.163-16-16v0-127.2c0-8.837 7.163-16 16-16s16 7.163 16 16v0 88.576l131.072-131.072z" />
<glyph unicode="&#xe941;" glyph-name="arrow-up-left" d="M64 432c0 8.837 7.163 16 16 16v0h192c8.837 0 16-7.163 16-16s-7.163-16-16-16v0h-153.376l324.704-324.672c2.899-2.899 4.692-6.904 4.692-11.328 0-8.848-7.173-16.020-16.020-16.020-4.424 0-8.429 1.793-11.328 4.692v0l-324.672 324.704v-153.376c0-8.837-7.163-16-16-16s-16 7.163-16 16v0 192z" />
<glyph unicode="&#xe942;" glyph-name="arrow-up-right-circle-fill" d="M0 256c0-141.385 114.615-256 256-256s256 114.615 256 256v0c0 141.385-114.615 256-256 256s-256-114.615-256-256v0zM188.928 166.304c-2.913-3.014-6.993-4.885-11.508-4.885-8.837 0-16 7.163-16 16 0 4.516 1.871 8.595 4.88 11.505l131.076 131.077h-88.576c-8.837 0-16 7.163-16 16s7.163 16 16 16v0h127.2c8.837 0 16-7.163 16-16v0-127.2c0-8.837-7.163-16-16-16s-16 7.163-16 16v0 88.576l-131.072-131.072z" />
<glyph unicode="&#xe943;" glyph-name="arrow-up-right-circle" d="M32 256c0-123.712 100.288-224 224-224s224 100.288 224 224v0c0 123.712-100.288 224-224 224s-224-100.288-224-224v0zM512 256c0-141.385-114.615-256-256-256s-256 114.615-256 256v0c0 141.385 114.615 256 256 256s256-114.615 256-256v0zM187.328 166.304c-2.898-2.902-6.904-4.697-11.328-4.697-8.841 0-16.009 7.168-16.009 16.009 0 4.417 1.788 8.416 4.681 11.312v0l131.104 131.072h-88.576c-8.837 0-16 7.163-16 16s7.163 16 16 16v0h127.2c8.837 0 16-7.163 16-16v0-127.2c0-8.837-7.163-16-16-16s-16 7.163-16 16v0 88.576l-131.072-131.072z" />
<glyph unicode="&#xe944;" glyph-name="arrow-up-right-square-fill" d="M448 512c35.346 0 64-28.654 64-64v0-384c0-35.346-28.654-64-64-64v0h-384c-35.346 0-64 28.654-64 64v0 384c0 35.346 28.654 64 64 64v0h384zM188.928 166.304l131.072 131.072v-88.576c0-8.837 7.163-16 16-16s16 7.163 16 16v0 127.2c0 8.837-7.163 16-16 16v0h-127.2c-8.837 0-16-7.163-16-16s7.163-16 16-16v0h88.576l-131.072-131.072c-2.779-2.875-4.492-6.795-4.492-11.115 0-8.837 7.163-16 16-16 4.321 0 8.241 1.712 11.12 4.495l-0.005-0.005z" />
<glyph unicode="&#xe945;" glyph-name="arrow-up-right-square" d="M480 448c0 17.673-14.327 32-32 32v0h-384c-17.673 0-32-14.327-32-32v0-384c0-17.673 14.327-32 32-32v0h384c17.673 0 32 14.327 32 32v0 384zM0 448c0 35.346 28.654 64 64 64v0h384c35.346 0 64-28.654 64-64v0-384c0-35.346-28.654-64-64-64v0h-384c-35.346 0-64 28.654-64 64v0 384zM187.328 166.304c-2.898-2.902-6.904-4.697-11.328-4.697-8.841 0-16.009 7.168-16.009 16.009 0 4.417 1.788 8.416 4.681 11.312v0l131.104 131.072h-88.576c-8.837 0-16 7.163-16 16s7.163 16 16 16v0h127.2c8.837 0 16-7.163 16-16v0-127.2c0-8.837-7.163-16-16-16s-16 7.163-16 16v0 88.576l-131.072-131.072z" />
<glyph unicode="&#xe946;" glyph-name="arrow-up-right" d="M448 432c0 8.837-7.163 16-16 16v0h-192c-8.837 0-16-7.163-16-16s7.163-16 16-16v0h153.376l-324.704-324.672c-2.899-2.899-4.692-6.904-4.692-11.328 0-8.848 7.173-16.020 16.020-16.020 4.424 0 8.429 1.793 11.328 4.692v0l324.672 324.704v-153.376c0-8.837 7.163-16 16-16s16 7.163 16 16v0 192z" />
<glyph unicode="&#xe947;" glyph-name="arrow-up-short" d="M256 128c8.837 0 16 7.163 16 16v0 185.376l68.672-68.704c2.899-2.899 6.904-4.692 11.328-4.692 8.848 0 16.020 7.173 16.020 16.020 0 4.424-1.793 8.429-4.692 11.328v0l-96 96c-2.897 2.904-6.902 4.7-11.328 4.7s-8.431-1.796-11.328-4.7l-96-96c-2.899-2.899-4.692-6.904-4.692-11.328 0-8.847 7.173-16.020 16.020-16.020 4.424 0 8.429 1.793 11.328 4.692v0l68.672 68.704v-185.376c0-8.837 7.163-16 16-16v0z" />
<glyph unicode="&#xe948;" glyph-name="arrow-up-square-fill" d="M64 0c-35.346 0-64 28.654-64 64v0 384c0 35.346 28.654 64 64 64v0h384c35.346 0 64-28.654 64-64v0-384c0-35.346-28.654-64-64-64v0h-384zM272 144v185.376l68.672-68.704c2.899-2.899 6.904-4.692 11.328-4.692 8.848 0 16.020 7.173 16.020 16.020 0 4.424-1.793 8.429-4.692 11.328v0l-96 96c-2.897 2.904-6.902 4.7-11.328 4.7s-8.431-1.796-11.328-4.7l-96-96c-2.899-2.899-4.692-6.904-4.692-11.328 0-8.847 7.173-16.020 16.020-16.020 4.424 0 8.429 1.793 11.328 4.692v0l68.672 68.704v-185.376c0-8.837 7.163-16 16-16s16 7.163 16 16v0z" />
<glyph unicode="&#xe949;" glyph-name="arrow-up-square" d="M480 448c0 17.673-14.327 32-32 32v0h-384c-17.673 0-32-14.327-32-32v0-384c0-17.673 14.327-32 32-32v0h384c17.673 0 32 14.327 32 32v0 384zM0 448c0 35.346 28.654 64 64 64v0h384c35.346 0 64-28.654 64-64v0-384c0-35.346-28.654-64-64-64v0h-384c-35.346 0-64 28.654-64 64v0 384zM272 144c0-8.837-7.163-16-16-16s-16 7.163-16 16v0 185.376l-68.672-68.704c-2.899-2.899-6.904-4.692-11.328-4.692-8.847 0-16.020 7.173-16.020 16.020 0 4.424 1.793 8.429 4.692 11.328v0l96 96c2.897 2.904 6.903 4.7 11.328 4.7s8.431-1.796 11.327-4.7l96-96c2.899-2.899 4.692-6.904 4.692-11.328 0-8.847-7.173-16.020-16.020-16.020-4.424 0-8.429 1.793-11.328 4.692v0l-68.672 68.704v-185.376z" />
<glyph unicode="&#xe94a;" glyph-name="arrow-up" d="M256 32c8.837 0 16 7.163 16 16v0 377.376l100.672-100.704c2.899-2.899 6.904-4.692 11.328-4.692 8.848 0 16.020 7.173 16.020 16.020 0 4.424-1.793 8.429-4.692 11.328v0l-128 128c-2.897 2.904-6.902 4.7-11.328 4.7s-8.431-1.796-11.328-4.7l-128-128c-2.899-2.899-4.692-6.904-4.692-11.328 0-8.848 7.172-16.020 16.020-16.020 4.424 0 8.429 1.793 11.328 4.692v0l100.672 100.704v-377.376c0-8.837 7.163-16 16-16v0z" />
<glyph unicode="&#xe94b;" glyph-name="arrows-angle-contract" d="M5.504 5.504c2.896-2.894 6.894-4.685 11.312-4.685s8.416 1.79 11.312 4.685l131.072 131.072v-88.576c0-8.837 7.163-16 16-16s16 7.163 16 16v0 127.2c0 8.837-7.163 16-16 16v0h-127.2c-8.837 0-16-7.163-16-16s7.163-16 16-16v0h88.576l-131.072-131.072c-2.894-2.896-4.684-6.894-4.684-11.312s1.79-8.416 4.684-11.312v0zM506.496 506.496c-2.896 2.894-6.894 4.685-11.312 4.685s-8.416-1.79-11.312-4.685l-131.072-131.072v88.576c0 8.837-7.163 16-16 16s-16-7.163-16-16v0-127.2c0-8.837 7.163-16 16-16v0h127.2c8.837 0 16 7.163 16 16s-7.163 16-16 16v0h-88.576l131.072 131.072c2.894 2.895 4.685 6.894 4.685 11.312s-1.79 8.416-4.685 11.312v0z" />
<glyph unicode="&#xe94c;" glyph-name="arrows-angle-expand" d="M186.496 186.496c-2.895 2.894-6.894 4.685-11.312 4.685s-8.417-1.79-11.312-4.685l-131.072-131.072v88.576c0 8.837-7.163 16-16 16s-16-7.163-16-16v0-127.2c0-8.837 7.163-16 16-16v0h127.2c8.837 0 16 7.163 16 16s-7.163 16-16 16v0h-88.576l131.072 131.072c2.894 2.896 4.684 6.894 4.684 11.312s-1.79 8.416-4.685 11.312v0zM325.504 325.504c2.896-2.894 6.894-4.685 11.312-4.685s8.416 1.79 11.312 4.685l131.072 131.072v-88.576c0-8.837 7.163-16 16-16s16 7.163 16 16v0 127.2c0 8.837-7.163 16-16 16v0h-127.2c-8.837 0-16-7.163-16-16s7.163-16 16-16h88.576l-131.072-131.072c-2.894-2.895-4.685-6.894-4.685-11.312s1.79-8.416 4.685-11.312v0z" />
<glyph unicode="&#xe94d;" glyph-name="arrows-collapse" d="M32 256c0 8.837 7.163 16 16 16v0h416c8.837 0 16-7.163 16-16s-7.163-16-16-16v0h-416c-8.837 0-16 7.163-16 16v0zM256 512c8.837 0 16-7.163 16-16v0-121.376l36.672 36.704c2.899 2.899 6.904 4.692 11.328 4.692 8.848 0 16.020-7.172 16.020-16.020 0-4.424-1.793-8.429-4.692-11.328v0l-64-64c-2.897-2.904-6.902-4.701-11.328-4.701s-8.431 1.797-11.328 4.701l-64 64c-2.899 2.899-4.692 6.904-4.692 11.328 0 8.848 7.173 16.020 16.020 16.020 4.424 0 8.429-1.793 11.328-4.692v0l36.672-36.704v121.376c0 8.837 7.163 16 16 16v0zM240 137.376l-36.672-36.704c-2.899-2.899-6.904-4.692-11.328-4.692-8.847 0-16.020 7.173-16.020 16.020 0 4.424 1.793 8.429 4.692 11.328v0l64 64c2.897 2.904 6.903 4.7 11.328 4.7s8.431-1.796 11.327-4.7l64-64c2.899-2.899 4.692-6.904 4.692-11.328 0-8.848-7.173-16.020-16.020-16.020-4.424 0-8.429 1.793-11.328 4.692v0l-36.672 36.704v-121.376c0-8.837-7.163-16-16-16s-16 7.163-16 16v0 121.376z" />
<glyph unicode="&#xe94e;" glyph-name="arrows-expand" d="M32 256c0 8.837 7.163 16 16 16v0h416c8.837 0 16-7.163 16-16s-7.163-16-16-16v0h-416c-8.837 0-16 7.163-16 16v0zM244.672 507.328c2.897 2.904 6.903 4.701 11.328 4.701s8.431-1.797 11.327-4.701l64-64c2.899-2.899 4.692-6.904 4.692-11.328 0-8.848-7.173-16.020-16.020-16.020-4.424 0-8.429 1.793-11.328 4.692v0l-36.672 36.704v-121.376c0-8.837-7.163-16-16-16s-16 7.163-16 16v0 121.376l-36.672-36.704c-2.899-2.899-6.904-4.692-11.328-4.692-8.847 0-16.020 7.172-16.020 16.020 0 4.424 1.793 8.429 4.692 11.328v0l64 64zM256 192c8.837 0 16-7.163 16-16v0-121.376l36.672 36.704c2.899 2.899 6.904 4.692 11.328 4.692 8.848 0 16.020-7.173 16.020-16.020 0-4.424-1.793-8.429-4.692-11.328v0l-64-64c-2.897-2.904-6.902-4.7-11.328-4.7s-8.431 1.796-11.328 4.7l-64 64c-2.899 2.899-4.692 6.904-4.692 11.328 0 8.848 7.173 16.020 16.020 16.020 4.424 0 8.429-1.793 11.328-4.692v0l36.672-36.704v121.376c0 8.837 7.163 16 16 16v0z" />
<glyph unicode="&#xe94f;" glyph-name="arrows-fullscreen" d="M186.496 186.496c-2.895 2.894-6.894 4.685-11.312 4.685s-8.417-1.79-11.312-4.685l-131.072-131.072v88.576c0 8.837-7.163 16-16 16s-16-7.163-16-16v0-127.2c0-8.837 7.163-16 16-16v0h127.2c8.837 0 16 7.163 16 16s-7.163 16-16 16v0h-88.576l131.072 131.072c2.894 2.896 4.684 6.894 4.684 11.312s-1.79 8.416-4.685 11.312v0zM325.504 186.496c2.896 2.894 6.894 4.685 11.312 4.685s8.416-1.79 11.312-4.685l131.072-131.072v88.576c0 8.837 7.163 16 16 16s16-7.163 16-16v0-127.2c0-8.837-7.163-16-16-16v0h-127.2c-8.837 0-16 7.163-16 16s7.163 16 16 16v0h88.576l-131.072 131.072c-2.894 2.896-4.685 6.894-4.685 11.312s1.79 8.416 4.685 11.312v0zM325.504 325.504c2.896-2.894 6.894-4.685 11.312-4.685s8.416 1.79 11.312 4.685l131.072 131.072v-88.576c0-8.837 7.163-16 16-16s16 7.163 16 16v0 127.2c0 8.837-7.163 16-16 16v0h-127.2c-8.837 0-16-7.163-16-16s7.163-16 16-16h88.576l-131.072-131.072c-2.894-2.895-4.685-6.894-4.685-11.312s1.79-8.416 4.685-11.312v0zM186.496 325.504c-2.895-2.894-6.894-4.685-11.312-4.685s-8.417 1.79-11.312 4.685l-131.072 131.072v-88.576c0-8.837-7.163-16-16-16s-16 7.163-16 16v0 127.2c0 8.837 7.163 16 16 16v0h127.2c8.837 0 16-7.163 16-16s-7.163-16-16-16h-88.576l131.072-131.072c2.894-2.895 4.684-6.894 4.684-11.312s-1.79-8.416-4.685-11.312v0z" />
<glyph unicode="&#xe950;" glyph-name="arrows-move" d="M244.672 507.328c2.897 2.904 6.903 4.701 11.328 4.701s8.431-1.797 11.327-4.701l64-64c2.899-2.899 4.692-6.904 4.692-11.328 0-8.848-7.173-16.020-16.020-16.020-4.424 0-8.429 1.793-11.328 4.692v0l-36.672 36.704v-121.376c0-8.837-7.163-16-16-16s-16 7.163-16 16v0 121.376l-36.672-36.704c-2.899-2.899-6.904-4.692-11.328-4.692-8.847 0-16.020 7.172-16.020 16.020 0 4.424 1.793 8.429 4.692 11.328v0l64 64zM256 192c8.837 0 16-7.163 16-16v0-121.376l36.672 36.704c2.899 2.899 6.904 4.692 11.328 4.692 8.848 0 16.020-7.173 16.020-16.020 0-4.424-1.793-8.429-4.692-11.328v0l-64-64c-2.897-2.904-6.902-4.7-11.328-4.7s-8.431 1.796-11.328 4.7l-64 64c-2.899 2.899-4.692 6.904-4.692 11.328 0 8.848 7.173 16.020 16.020 16.020 4.424 0 8.429-1.793 11.328-4.692v0l36.672-36.704v121.376c0 8.837 7.163 16 16 16v0zM4.672 244.672c-2.904 2.897-4.7 6.902-4.7 11.328s1.796 8.431 4.7 11.328l64.001 64c2.899 2.899 6.904 4.692 11.328 4.692 8.847 0 16.020-7.173 16.020-16.020 0-4.424-1.793-8.429-4.692-11.328v0l-36.704-36.672h121.376c8.837 0 16-7.163 16-16s-7.163-16-16-16v0h-121.376l36.704-36.672c2.899-2.899 4.692-6.904 4.692-11.328 0-8.848-7.172-16.020-16.020-16.020-4.424 0-8.429 1.793-11.328 4.692v0l-64 64zM320 256c0 8.837 7.163 16 16 16v0h121.376l-36.704 36.672c-2.899 2.899-4.692 6.904-4.692 11.328 0 8.847 7.173 16.020 16.020 16.020 4.424 0 8.429-1.793 11.328-4.692v0l64-64c2.904-2.897 4.7-6.902 4.7-11.328s-1.796-8.431-4.7-11.327l-64-64c-2.899-2.899-6.904-4.692-11.328-4.692-8.848 0-16.020 7.173-16.020 16.020 0 4.424 1.793 8.429 4.692 11.328v0l36.704 36.672h-121.376c-8.837 0-16 7.163-16 16v0z" />
<glyph unicode="&#xe951;" glyph-name="aspect-ratio-fill" d="M0 112v288c0 26.51 21.491 48 48 48v0h416c26.51 0 48-21.49 48-48v0-288c0-26.51-21.49-48-48-48v0h-416c-26.509 0-48 21.49-48 48v0zM80 384c-8.837 0-16-7.163-16-16v0-96c0-8.837 7.163-16 16-16s16 7.163 16 16v0 80h80c8.837 0 16 7.163 16 16s-7.163 16-16 16v0h-96zM432 128c8.837 0 16 7.163 16 16v0 96c0 8.837-7.163 16-16 16s-16-7.163-16-16v0-80h-80c-8.837 0-16-7.163-16-16s7.163-16 16-16v0h96z" />
<glyph unicode="&#xe952;" glyph-name="aspect-ratio" d="M0 400c0 26.51 21.491 48 48 48v0h416c26.51 0 48-21.49 48-48v0-288c0-26.51-21.49-48-48-48v0h-416c-26.509 0-48 21.49-48 48v0 288zM48 416c-8.837 0-16-7.163-16-16v0-288c0-8.837 7.163-16 16-16v0h416c8.837 0 16 7.163 16 16v0 288c0 8.837-7.163 16-16 16v0h-416zM64 368c0 8.837 7.163 16 16 16v0h96c8.837 0 16-7.163 16-16s-7.163-16-16-16v0h-80v-80c0-8.837-7.163-16-16-16s-16 7.163-16 16v0 96zM448 144c0-8.837-7.163-16-16-16v0h-96c-8.837 0-16 7.163-16 16s7.163 16 16 16v0h80v80c0 8.837 7.163 16 16 16s16-7.163 16-16v0-96z" />
<glyph unicode="&#xe953;" glyph-name="asterisk" d="M256 512c17.673 0 32-14.327 32-32v0-168.576l145.984 84.288c4.634 2.762 10.218 4.394 16.184 4.394 17.673 0 32-14.327 32-32 0-11.856-6.449-22.207-16.029-27.736l-0.154-0.082-145.984-84.288 145.984-84.288c9.736-5.611 16.184-15.962 16.184-27.818 0-17.673-14.327-32-32-32-5.966 0-11.55 1.632-16.331 4.476l0.147-0.081-145.984 84.288v-168.576c0-17.673-14.327-32-32-32s-32 14.327-32 32v0 168.576l-145.984-84.288c-4.633-2.762-10.218-4.394-16.184-4.394-17.673 0-32 14.327-32 32 0 11.856 6.449 22.207 16.029 27.736l0.154 0.082 145.984 84.288-145.984 84.288c-9.529 5.659-15.816 15.899-15.816 27.606 0 17.673 14.327 32 32 32 5.817 0 11.27-1.552 15.971-4.264l-0.154 0.082 145.984-84.288v168.576c0 17.673 14.327 32 32 32v0z" />
<glyph unicode="&#xe954;" glyph-name="at" d="M419.392 280.896c0 94.944-71.968 161.024-175.424 161.024-107.2 0-180.672-74.176-180.672-182.464 0-111.776 71.52-182.656 184.384-182.656 27.584 0 54.048 3.936 73.728 10.72v27.584c-13.76-6.368-43.328-10.496-73.28-10.496-93.632 0-154.016 60.16-154.016 153.536 0 91.008 61.472 156.192 147.008 156.192 87.52 0 147.456-54.016 147.456-132.992 0-53.824-17.728-88.608-45.312-88.608-15.744 0-24.704 8.96-24.704 24.32v128.352h-33.024v-26.688h-3.52c-8.512 19.040-28.192 30.848-51.2 30.848-44.8 0-76.096-37.184-76.096-90.336 0-55.584 30.624-92.992 76.128-92.992 25.6 0 45.28 12.48 54.688 34.784h3.52c2.592-21.44 22.496-36.736 48.096-36.736 50.304 0 82.24 45.28 82.24 116.576zM189.728 258.368c0 38.304 17.28 61.024 46.592 61.024 29.76 0 48.768-23.616 48.768-61.024s-19.232-61.248-49.216-61.248c-28.64 0-46.144 23.2-46.144 61.248z" />
<glyph unicode="&#xe955;" glyph-name="award-fill" d="M256 512l53.408-27.648 59.456-9.024 26.944-53.76 42.784-42.24-9.792-59.328 9.792-59.328-42.784-42.24-26.944-53.76-59.456-9.024-53.408-27.648-53.408 27.648-59.456 9.024-26.944 53.76-42.784 42.24 9.792 59.328-9.792 59.328 42.784 42.24 26.944 53.76 59.456 9.024 53.408 27.648zM128 134.592v-134.592l128 32 128-32v134.592l-64.576-9.792-63.424-32.832-63.424 32.832-64.576 9.792z" />
<glyph unicode="&#xe956;" glyph-name="award" d="M309.408 484.352l-53.408 27.648-53.408-27.648-59.456-9.024-26.944-53.76-42.784-42.24 9.792-59.328-9.792-59.328 42.784-42.24 26.944-53.76 59.456-9.024 53.408-27.648 53.408 27.648 59.456 9.024 26.944 53.76 42.784 42.24-9.792 59.328 9.792 59.328-42.784 42.24-26.944 53.76-59.456 9.024zM347.68 446.176l21.888-43.68 34.752-34.304-7.936-48.192 7.936-48.192-34.752-34.304-21.888-43.68-48.32-7.328-43.36-22.464-43.36 22.464-48.32 7.328-21.888 43.68-34.752 34.304 7.968 48.192-8 48.192 34.784 34.304 21.888 43.68 48.32 7.328 43.36 22.464 43.392-22.464 48.288-7.328zM128 134.592v-134.592l128 32 128-32v134.592l-64.576-9.792-63.424-32.832-63.424 32.832-64.576 9.792z" />
<glyph unicode="&#xe957;" glyph-name="back" d="M0 448c0 35.346 28.654 64 64 64v0h256c35.346 0 64-28.654 64-64v0-64h64c35.346 0 64-28.654 64-64v0-256c0-35.346-28.654-64-64-64v0h-256c-35.346 0-64 28.654-64 64v0 64h-64c-35.346 0-64 28.654-64 64v0 256zM64 480c-17.673 0-32-14.327-32-32v0-256c0-17.673 14.327-32 32-32v0h256c17.673 0 32 14.327 32 32v0 256c0 17.673-14.327 32-32 32v0h-256z" />
<glyph unicode="&#xe958;" glyph-name="backspace-fill" d="M501.856 416c0 35.346-28.654 64-64 64v0h-226.56c-0.008 0-0.018 0-0.027 0-19.394 0-36.774-8.627-48.511-22.252l-0.070-0.084-154.976-180.864c-4.792-5.562-7.71-12.856-7.71-20.832s2.918-15.271 7.745-20.874l-0.035 0.042 154.976-180.8c11.807-13.709 29.186-22.336 48.581-22.336 0.010 0 0.019 0 0.029 0h226.558c35.346 0 64 28.654 64 64v0 320zM186.528 324.672c-2.902 2.898-4.697 6.904-4.697 11.328 0 8.841 7.167 16.009 16.009 16.009 4.417 0 8.416-1.788 11.312-4.681v0l68.704-68.704 68.672 68.704c2.896 2.892 6.895 4.681 11.312 4.681 8.841 0 16.009-7.167 16.009-16.009 0-4.425-1.795-8.43-4.697-11.328v0l-68.672-68.672 68.672-68.672c2.902-2.898 4.697-6.904 4.697-11.328 0-8.841-7.168-16.009-16.009-16.009-4.417 0-8.416 1.788-11.312 4.681v0l-68.672 68.704-68.704-68.704c-2.896-2.892-6.895-4.681-11.312-4.681-8.841 0-16.009 7.168-16.009 16.009 0 4.425 1.795 8.43 4.697 11.328v0l68.704 68.672-68.704 68.672z" />
<glyph unicode="&#xe959;" glyph-name="backspace-reverse-fill" d="M0 416c0 35.346 28.654 64 64 64v0h226.56c0.008 0 0.017 0 0.027 0 19.394 0 36.774-8.627 48.51-22.252l0.070-0.084 154.976-180.832c4.791-5.562 7.709-12.856 7.709-20.832s-2.918-15.271-7.745-20.874l0.035 0.042-154.944-180.768c-11.808-13.747-29.212-22.4-48.636-22.4-0.002 0-0.003 0-0.005 0h-226.56c-35.346 0-64 28.654-64 64v0 320zM315.328 324.672c2.899 2.899 4.692 6.904 4.692 11.328 0 8.847-7.173 16.020-16.020 16.020-4.424 0-8.429-1.793-11.328-4.692v0l-68.672-68.704-68.672 68.704c-2.899 2.899-6.904 4.692-11.328 4.692-8.847 0-16.020-7.173-16.020-16.020 0-4.424 1.793-8.429 4.692-11.328v0l68.704-68.672-68.704-68.672c-2.899-2.899-4.692-6.904-4.692-11.328 0-8.848 7.173-16.020 16.020-16.020 4.424 0 8.429 1.793 11.328 4.692v0l68.672 68.704 68.672-68.704c2.899-2.899 6.904-4.692 11.328-4.692 8.848 0 16.020 7.173 16.020 16.020 0 4.424-1.793 8.429-4.692 11.328v0l-68.704 68.672 68.704 68.672z" />
<glyph unicode="&#xe95a;" glyph-name="backspace-reverse" d="M315.328 347.328c2.904-2.897 4.7-6.902 4.7-11.328s-1.796-8.431-4.7-11.327l-68.704-68.673 68.704-68.672c2.899-2.899 4.692-6.904 4.692-11.328 0-8.848-7.173-16.020-16.020-16.020-4.424 0-8.429 1.793-11.328 4.692v0l-68.672 68.704-68.672-68.704c-2.899-2.899-6.904-4.692-11.328-4.692-8.847 0-16.020 7.173-16.020 16.020 0 4.424 1.793 8.429 4.692 11.328v0l68.704 68.672-68.704 68.672c-2.899 2.899-4.692 6.904-4.692 11.328 0 8.848 7.173 16.020 16.020 16.020 4.424 0 8.429-1.793 11.328-4.692v0l68.672-68.704 68.672 68.704c2.897 2.904 6.902 4.7 11.328 4.7s8.431-1.796 11.327-4.7l0-0zM64 480c-35.346 0-64-28.654-64-64v0-320c0-35.346 28.654-64 64-64v0h226.56c0.008 0 0.017 0 0.027 0 19.394 0 36.774 8.627 48.51 22.252l0.070 0.084 154.976 180.832c4.791 5.562 7.709 12.856 7.709 20.832s-2.918 15.27-7.745 20.874l0.035-0.042-154.944 180.768c-11.808 13.747-29.212 22.4-48.636 22.4-0.002 0-0.003 0-0.005 0h-226.56zM290.56 448c0 0 0.002 0 0.002 0 9.712 0 18.413-4.327 24.282-11.158l0.036-0.042 154.944-180.8-155.008-180.8c-5.898-6.866-14.587-11.19-24.286-11.2h-226.53c-17.673 0-32 14.327-32 32v0 320c0 17.673 14.327 32 32 32v0h226.56z" />
<glyph unicode="&#xe95b;" glyph-name="backspace" d="M186.56 347.328c-2.904-2.897-4.701-6.902-4.701-11.328s1.797-8.431 4.701-11.327l68.64-68.673-68.704-68.672c-2.902-2.898-4.697-6.904-4.697-11.328 0-8.841 7.167-16.009 16.009-16.009 4.417 0 8.416 1.788 11.312 4.681v0l68.704 68.704 68.672-68.704c2.896-2.892 6.895-4.681 11.312-4.681 8.841 0 16.009 7.168 16.009 16.009 0 4.425-1.795 8.43-4.697 11.328v0l-68.64 68.672 68.672 68.672c2.902 2.898 4.697 6.904 4.697 11.328 0 8.841-7.168 16.009-16.009 16.009-4.417 0-8.416-1.788-11.312-4.681v0l-68.672-68.704-68.704 68.704c-2.895 2.894-6.894 4.685-11.312 4.685s-8.416-1.79-11.312-4.685v0zM437.856 480c35.346 0 64-28.654 64-64v0-320c0-35.346-28.654-64-64-64v0h-226.56c-0.008 0-0.018 0-0.027 0-19.394 0-36.774 8.627-48.511 22.252l-0.070 0.084-154.976 180.864c-4.792 5.562-7.71 12.856-7.71 20.832s2.918 15.27 7.745 20.874l-0.035-0.042 154.976 180.736c11.803 13.74 29.194 22.392 48.607 22.4h226.561zM211.296 448c-0 0-0.001 0-0.002 0-9.712 0-18.413-4.327-24.282-11.158l-0.036-0.042-154.976-180.8 155.008-180.8c5.898-6.866 14.587-11.19 24.286-11.2h226.562c17.673 0 32 14.327 32 32v0 320c0 17.673-14.327 32-32 32v0h-226.56z" />
<glyph unicode="&#xe95c;" glyph-name="badge-3d-fill" d="M325.024 321.024h-27.008v-129.92h27.008c35.712 0 51.872 21.344 51.872 64.64 0 43.328-16.32 65.28-51.872 65.28zM0 384c0 35.346 28.654 64 64 64v0h384c35.346 0 64-28.654 64-64v0-256c0-35.346-28.654-64-64-64v0h-384c-35.346 0-64 28.654-64 64v0 256zM165.888 244.224c20.672 0 33.76-12.096 33.92-28.8 0.256-17.184-13.664-29.408-34.752-29.408-19.136 0.128-33.184 10.4-34.176 24.192h-34.88c0.96-29.248 25.312-54.016 68.896-54.016 39.68 0 73.12 21.12 72.704 57.536-0.416 30.496-23.904 44.16-41.344 45.824v1.984c14.080 2.24 36 16.864 35.456 44-0.416 28.992-25.6 50.24-65.696 50.080-41.92-0.16-65.376-23.488-66.368-53.44h35.296c0.704 12.512 12.256 24.032 29.952 24.032 17.024 0 29.696-10.56 29.696-26.016 0.128-15.328-12.256-26.72-29.696-26.72h-20.224v-29.248h21.216zM260.032 160h70.048c57.92 0 85.92 35.424 85.92 96.48 0 60.608-27.552 95.488-85.92 95.488h-70.048v-191.968z" />
<glyph unicode="&#xe95d;" glyph-name="badge-3d" d="M144.64 244.224h21.248c20.672 0 33.76-12.096 33.92-28.8 0.256-17.184-13.664-29.408-34.752-29.408-19.136 0.128-33.184 10.4-34.176 24.192h-34.88c0.96-29.248 25.312-54.016 68.896-54.016 39.68 0 73.12 21.12 72.704 57.536-0.416 30.496-23.904 44.16-41.344 45.824v1.984c14.080 2.24 36 16.864 35.456 44-0.416 28.992-25.6 50.24-65.696 50.080-41.92-0.16-65.376-23.488-66.368-53.44h35.296c0.704 12.512 12.256 24.032 29.952 24.032 17.024 0 29.696-10.56 29.696-26.016 0.128-15.328-12.256-26.72-29.696-26.72h-20.224v-29.248zM260.032 351.968v-191.968h70.048c57.92 0 85.92 35.424 85.92 96.48 0 60.608-27.552 95.488-85.92 95.488h-70.048zM298.016 321.024h27.008c35.584 0 51.872-21.952 51.872-65.28 0-43.296-16.16-64.64-51.872-64.64h-27.008v129.92zM448 416c17.673 0 32-14.327 32-32v0-256c0-17.673-14.327-32-32-32v0h-384c-17.673 0-32 14.327-32 32v0 256c0 17.673 14.327 32 32 32v0h384zM64 448c-35.346 0-64-28.654-64-64v0-256c0-35.346 28.654-64 64-64v0h384c35.346 0 64 28.654 64 64v0 256c0 35.346-28.654 64-64 64v0h-384z" />
<glyph unicode="&#xe95e;" glyph-name="badge-4k-fill" d="M114.464 227.2v-0.96h58.496v97.024h-1.984c-16.274-24.764-35.009-56.147-52.602-88.245l-3.909-7.786zM64 448c-35.346 0-64-28.654-64-64v0-256c0-35.346 28.654-64 64-64v0h384c35.346 0 64 28.654 64 64v0 256c0 35.346-28.654 64-64 64v0h-384zM139.904 329.12l13.92 22.848h54.72v-125.76h23.456v-30.624h-23.456v-35.584h-35.584v35.584h-92.96v31.072c18.368 34.464 39.2 68.544 59.904 102.464zM387.264 351.968h41.792l-68.48-82.688 71.424-109.28h-45.696l-53.728 83.968-19.68-22.4v-61.568h-38.016v191.968h37.984v-85.952h1.824l72.576 85.984z" />
<glyph unicode="&#xe95f;" glyph-name="badge-4k" d="M153.824 351.968c-25.152-41.504-51.328-83.168-73.824-125.312v-31.072h92.96v-35.584h35.584v35.584h23.456v30.656h-23.456v125.728h-54.72zM114.464 226.208v1.024c21.503 39.885 40.238 71.269 60.061 101.882l-3.549-5.85h1.984v-97.024h-58.496zM429.056 351.968h-41.792l-72.544-85.952h-1.824v85.984h-38.016v-192h37.984v61.6l19.68 22.368 53.76-83.968h45.696l-71.424 109.28 68.48 82.688zM448 416c17.673 0 32-14.327 32-32v0-256c0-17.673-14.327-32-32-32v0h-384c-17.673 0-32 14.327-32 32v0 256c0 17.673 14.327 32 32 32v0h384zM64 448c-35.346 0-64-28.654-64-64v0-256c0-35.346 28.654-64 64-64v0h384c35.346 0 64 28.654 64 64v0 256c0 35.346-28.654 64-64 64v0h-384z" />
<glyph unicode="&#xe960;" glyph-name="badge-8k-fill" d="M124.8 300.64c0-16.32 12.96-27.712 30.4-27.712s30.24 11.392 30.24 27.712-12.8 27.264-30.24 27.264c-17.44 0-30.4-10.976-30.4-27.264zM118.656 215.264c0-18.848 15.744-31.488 36.544-31.488 20.672 0 36.576 12.64 36.576 31.488s-15.904 31.776-36.576 31.776c-20.8 0-36.544-12.928-36.544-31.776zM64 448c-35.346 0-64-28.654-64-64v0-256c0-35.346 28.654-64 64-64v0h384c35.346 0 64 28.654 64 64v0 256c0 35.346-28.654 64-64 64v0h-384zM229.44 212.864c0-33.312-29.664-56.512-74.656-56.512s-73.984 23.040-73.984 56.384c0 30.528 22.784 44.288 40.224 47.808v1.696c-16.32 4.928-32.64 17.856-32.64 42.592 0 29.248 26.592 50.784 66.816 50.784 40.096 0 66.656-21.536 66.656-50.784 0-25.024-16.736-37.824-32.64-42.592v-1.696c17.44-3.52 40.224-17.44 40.224-47.68zM387.264 352h41.792l-68.48-82.688 71.424-109.28h-45.696l-53.728 83.968-19.68-22.368v-61.6h-38.016v191.968h37.984v-85.92h1.824l72.576 85.92z" />
<glyph unicode="&#xe961;" glyph-name="badge-8k" d="M154.784 156.352c44.992 0 74.656 23.2 74.656 56.512 0 30.24-22.784 44.16-40.192 47.68v1.696c15.872 4.8 32.64 17.6 32.64 42.592 0 29.248-26.592 50.784-66.688 50.784-40.224 0-66.784-21.536-66.784-50.784 0-24.736 16.32-37.664 32.64-42.592v-1.696c-17.472-3.52-40.256-17.28-40.256-47.808 0-33.344 28.992-56.384 73.984-56.384zM155.2 272.928c-17.44 0-30.4 11.392-30.4 27.712s12.96 27.264 30.4 27.264c17.44 0 30.24-10.976 30.24-27.264 0-16.32-12.8-27.712-30.24-27.712zM155.2 183.776c-20.8 0-36.544 12.64-36.544 31.488s15.744 31.776 36.544 31.776c20.672 0 36.576-12.928 36.576-31.776s-15.904-31.488-36.576-31.488zM429.056 352h-41.792l-72.544-85.92h-1.824v85.92h-38.016v-191.936h37.984v61.536l19.68 22.368 53.728-83.936h45.728l-71.424 109.248 68.48 82.72zM448 416c17.673 0 32-14.327 32-32v0-256c0-17.673-14.327-32-32-32v0h-384c-17.673 0-32 14.327-32 32v0 256c0 17.673 14.327 32 32 32v0h384zM64 448c-35.346 0-64-28.654-64-64v0-256c0-35.346 28.654-64 64-64v0h384c35.346 0 64 28.654 64 64v0 256c0 35.346-28.654 64-64 64v0h-384z" />
<glyph unicode="&#xe962;" glyph-name="badge-ad-fill" d="M363.2 245.216c0 22.368-13.44 36.416-32.032 36.416-18.688 0-30.528-14.208-30.528-39.648v-14.496c0-25.6 11.968-39.936 31.104-39.936 18.816 0 31.488 14.080 31.488 38.4v19.264zM189.984 237.632l-23.488 77.632h-1.696l-23.488-77.632h48.64zM64 448c-35.346 0-64-28.654-64-64v0-256c0-35.346 28.654-64 64-64v0h384c35.346 0 64 28.654 64 64v0 256c0 35.346-28.654 64-64 64v0h-384zM262.688 245.76c0 40.96 22.208 65.408 56.096 65.408 20.96 0 36.992-9.408 42.752-24.608h1.696v75.52h37.12v-202.080h-36.416v23.904h-1.824c-4.64-15.168-22.080-25.728-43.744-25.728-33.76 0-55.68 24.448-55.68 65.376v22.24zM133.408 209.344l-15.008-49.344h-38.4l64.416 191.968h44.384l64.16-191.968h-40.352l-15.040 49.344h-64.128z" />
<glyph unicode="&#xe963;" glyph-name="badge-ad" d="M118.4 160l15.040 49.344h64.128l15.040-49.344h40.352l-64.128 191.968h-44.416l-64.416-191.968h38.4zM166.496 315.264l23.488-77.632h-48.672l23.488 77.632h1.696zM318.784 311.168c-33.888 0-56.096-24.48-56.096-65.376v-22.24c0-40.928 21.92-65.376 55.68-65.376 21.664 0 39.104 10.56 43.744 25.728h1.824v-23.904h36.416v202.080h-37.12v-75.52h-1.696c-5.76 15.2-21.76 24.64-42.752 24.64zM331.168 281.632c18.56 0 32.064-14.080 32.064-36.416v-19.264c0-24.32-12.672-38.4-31.488-38.4-19.136 0-31.104 14.368-31.104 39.936v14.496c0 25.44 11.84 39.68 30.528 39.68zM448 416c17.673 0 32-14.327 32-32v0-256c0-17.673-14.327-32-32-32v0h-384c-17.673 0-32 14.327-32 32v0 256c0 17.673 14.327 32 32 32v0h384zM64 448c-35.346 0-64-28.654-64-64v0-256c0-35.346 28.654-64 64-64v0h384c35.346 0 64 28.654 64 64v0 256c0 35.346-28.654 64-64 64v0h-384z" />
<glyph unicode="&#xe964;" glyph-name="badge-ar-fill" d="M192.992 237.632l-23.488 77.632h-1.664l-23.52-77.632h48.64zM309.536 322.144v-62.016h33.056c21.12 0 34.176 10.112 34.176 30.4 0 20.48-13.504 31.616-33.6 31.616h-33.6zM0 384c0 35.346 28.654 64 64 64v0h384c35.346 0 64-28.654 64-64v0-256c0-35.346-28.654-64-64-64v0h-384c-35.346 0-64 28.654-64 64v0 256zM136.48 209.344h64.128l15.040-49.344h40.352l-64.128 191.968h-44.448l-64.384-191.968h38.4l15.040 49.344zM272 352v-192h37.536v71.584h34.048l33.6-71.584h42.464l-38.528 77.344c17.44 6.72 34.88 25.728 34.88 53.856 0 36.704-24.736 60.8-67.36 60.8h-76.64z" />
<glyph unicode="&#xe965;" glyph-name="badge-ar" d="M121.408 160l15.040 49.344h64.192l15.008-49.344h40.352l-64.128 191.968h-44.448l-64.384-191.968h38.4zM169.504 315.264l23.488-77.632h-48.64l23.488 77.632h1.664zM348.64 351.968h-76.64v-191.968h37.536v71.584h34.048l33.6-71.584h42.464l-38.528 77.344c17.44 6.72 34.88 25.728 34.88 53.856 0 36.704-24.736 60.8-67.36 60.8zM309.536 260.128v62.016h33.6c20.16 0 33.6-11.104 33.6-31.648 0-20.256-13.056-30.4-34.144-30.4h-33.056zM448 416c17.673 0 32-14.327 32-32v0-256c0-17.673-14.327-32-32-32v0h-384c-17.673 0-32 14.327-32 32v0 256c0 17.673 14.327 32 32 32v0h384zM64 448c-35.346 0-64-28.654-64-64v0-256c0-35.346 28.654-64 64-64v0h384c35.346 0 64 28.654 64 64v0 256c0 35.346-28.654 64-64 64v0h-384z" />
<glyph unicode="&#xe966;" glyph-name="badge-cc-fill" d="M64 448c-35.346 0-64-28.654-64-64v0-256c0-35.346 28.654-64 64-64v0h384c35.346 0 64 28.654 64 64v0 256c0 35.346-28.654 64-64 64v0h-384zM160.864 319.936c-26.56 0-42.208-20.544-42.208-56.096v-23.776c0-35.424 15.36-55.264 42.208-55.264 22.080 0 36.416 13.92 37.952 33.6h36.704v-3.648c-1.824-36.704-32.896-62.016-74.944-62.016-51.616 0-80.576 32.896-80.576 87.328v23.904c0 54.4 29.248 88.032 80.576 88.032 42.176 0 73.28-26.016 74.944-64v-3.52h-36.704c-1.536 20.416-16.16 35.456-37.952 35.456zM357.344 319.936c-26.592 0-42.208-20.544-42.208-56.096v-23.776c0-35.424 15.36-55.264 42.176-55.264 22.080 0 36.448 13.92 37.984 33.6h36.704v-3.648c-1.824-36.704-32.896-62.016-74.944-62.016-51.616 0-80.576 32.896-80.576 87.328v23.904c0 54.4 29.248 88.032 80.576 88.032 42.176 0 73.28-26.016 74.944-64v-3.52h-36.704c-1.536 20.416-16.16 35.456-37.984 35.456z" />
<glyph unicode="&#xe967;" glyph-name="badge-cc" d="M118.656 263.84c0 35.552 15.616 56.096 42.208 56.096 21.792 0 36.416-15.040 37.952-35.424h36.704v3.488c-1.664 37.952-32.768 64-74.944 64-51.328 0-80.576-33.6-80.576-88.032v-23.904c0-54.4 28.96-87.36 80.576-87.36 42.048 0 73.12 25.344 74.944 62.048v3.648h-36.704c-1.536-19.68-15.872-33.6-37.952-33.6-26.88 0-42.208 19.84-42.208 55.264v23.776zM315.136 263.84c0 35.552 15.616 56.096 42.176 56.096 21.824 0 36.448-15.040 37.984-35.424h36.704v3.488c-1.696 37.952-32.768 64-74.944 64-51.328 0-80.576-33.6-80.576-88.032v-23.904c0-54.4 28.96-87.36 80.576-87.36 42.048 0 73.12 25.344 74.944 62.048v3.648h-36.704c-1.536-19.68-15.904-33.6-37.984-33.6-26.848 0-42.176 19.84-42.176 55.264v23.776zM448 416c17.673 0 32-14.327 32-32v0-256c0-17.673-14.327-32-32-32v0h-384c-17.673 0-32 14.327-32 32v0 256c0 17.673 14.327 32 32 32v0h384zM64 448c-35.346 0-64-28.654-64-64v0-256c0-35.346 28.654-64 64-64v0h384c35.346 0 64 28.654 64 64v0 256c0 35.346-28.654 64-64 64v0h-384z" />
<glyph unicode="&#xe968;" glyph-name="badge-hd-fill" d="M336.96 321.024h-26.976v-129.92h26.976c35.744 0 51.904 21.344 51.904 64.64 0 43.328-16.32 65.28-51.904 65.28zM64 448c-35.346 0-64-28.654-64-64v0-256c0-35.346 28.654-64 64-64v0h384c35.346 0 64 28.654 64 64v0 256c0 35.346-28.654 64-64 64v0h-384zM236.672 351.968v-191.968h-37.984v82.24h-80.704v-82.24h-37.984v191.968h37.984v-78.080h80.704v78.112h37.984zM272 160v191.968h70.016c58.368 0 85.92-34.88 85.92-95.488 0-61.056-27.936-96.48-85.856-96.48h-70.080z" />
<glyph unicode="&#xe969;" glyph-name="badge-hd" d="M236.672 160v191.968h-37.984v-78.080h-80.704v78.112h-37.984v-192h37.984v82.24h80.704v-82.24h37.984zM272 351.968v-191.968h70.016c57.952 0 85.92 35.424 85.92 96.48 0 60.608-27.52 95.488-85.888 95.488h-70.048zM309.984 321.024h26.976c35.584 0 51.904-21.952 51.904-65.28 0-43.296-16.16-64.64-51.904-64.64h-26.976v129.92zM448 416c17.673 0 32-14.327 32-32v0-256c0-17.673-14.327-32-32-32v0h-384c-17.673 0-32 14.327-32 32v0 256c0 17.673 14.327 32 32 32v0h384zM64 448c-35.346 0-64-28.654-64-64v0-256c0-35.346 28.654-64 64-64v0h384c35.346 0 64 28.654 64 64v0 256c0 35.346-28.654 64-64 64v0h-384z" />
<glyph unicode="&#xe96a;" glyph-name="badge-tm-fill" d="M64 448c-35.346 0-64-28.654-64-64v0-256c0-35.346 28.654-64 64-64v0h384c35.346 0 64 28.654 64 64v0 256c0 35.346-28.654 64-64 64v0h-384zM169.44 320.16v-160.16h-38.112v160.16h-54.4v31.84h147.072v-31.808h-54.56zM278.144 287.68v-127.68h-33.888v191.968h38.688l54.72-124.608h1.248l54.72 124.608h38.368v-191.968h-34.304v127.68h-1.824l-45.44-103.648h-24.736l-45.696 103.712h-1.856z" />
<glyph unicode="&#xe96b;" glyph-name="badge-tm" d="M169.44 160v160.16h54.56v31.84h-147.104v-31.808h54.432v-160.192h38.080zM278.144 160v127.68h1.856l45.696-103.648h24.736l45.44 103.68h1.824v-127.712h34.304v191.968h-38.4l-54.72-124.608h-1.248l-54.72 124.608h-38.624v-191.968h33.92zM448 416c17.673 0 32-14.327 32-32v0-256c0-17.673-14.327-32-32-32v0h-384c-17.673 0-32 14.327-32 32v0 256c0 17.673 14.327 32 32 32v0h384zM64 448c-35.346 0-64-28.654-64-64v0-256c0-35.346 28.654-64 64-64v0h384c35.346 0 64 28.654 64 64v0 256c0 35.346-28.654 64-64 64v0h-384z" />
<glyph unicode="&#xe96c;" glyph-name="badge-vo-fill" d="M393.472 243.392v25.024c0 36.992-18.272 55.552-43.584 55.552-25.472 0-43.616-18.56-43.616-55.552v-25.024c0-36.992 18.144-55.424 43.616-55.424 25.28 0 43.584 18.432 43.584 55.424zM64 448c-35.346 0-64-28.654-64-64v0-256c0-35.346 28.654-64 64-64v0h384c35.346 0 64 28.654 64 64v0 256c0 35.346-28.654 64-64 64v0h-384zM432 268.16v-24.64c0-54.112-30.784-87.168-82.112-87.168s-82.272 33.056-82.272 87.168v24.64c0 54.528 30.944 87.456 82.24 87.456 51.36 0 82.144-33.184 82.144-87.488zM189.984 160h-45.728l-64.256 191.968h44l43.040-150.624h1.824l42.656 150.624h42.176l-63.712-191.968z" />
<glyph unicode="&#xe96d;" glyph-name="badge-vo" d="M144.256 160h45.728l63.68 191.968h-42.144l-42.656-150.624h-1.824l-43.040 150.624h-44l64.256-191.968zM432 243.52v24.64c0 54.272-30.784 87.456-82.112 87.456s-82.272-32.928-82.272-87.488v-24.608c0-54.112 30.944-87.168 82.24-87.168 51.36 0 82.144 33.056 82.144 87.168zM393.472 268.416v-25.024c0-36.992-18.272-55.424-43.584-55.424-25.472 0-43.616 18.432-43.616 55.424v25.024c0 36.992 18.144 55.552 43.616 55.552 25.28 0 43.584-18.56 43.584-55.552zM448 416c17.673 0 32-14.327 32-32v0-256c0-17.673-14.327-32-32-32v0h-384c-17.673 0-32 14.327-32 32v0 256c0 17.673 14.327 32 32 32v0h384zM64 448c-35.346 0-64-28.654-64-64v0-256c0-35.346 28.654-64 64-64v0h384c35.346 0 64 28.654 64 64v0 256c0 35.346-28.654 64-64 64v0h-384z" />
<glyph unicode="&#xe96e;" glyph-name="badge-vr-fill" d="M309.536 322.144v-62.016h33.056c21.12 0 34.176 10.112 34.176 30.4 0 20.48-13.504 31.616-33.6 31.616h-33.6zM0 384c0 35.346 28.654 64 64 64v0h384c35.346 0 64-28.654 64-64v0-256c0-35.346-28.654-64-64-64v0h-384c-35.346 0-64 28.654-64 64v0 256zM189.984 160l63.68 191.968h-42.144l-42.656-150.624h-1.824l-43.040 150.624h-44l64.256-191.968h45.728zM272 351.968v-191.968h37.536v71.584h34.048l33.6-71.584h42.464l-38.528 77.344c17.44 6.72 34.88 25.728 34.88 53.856 0 36.704-24.736 60.8-67.36 60.8h-76.64z" />
<glyph unicode="&#xe96f;" glyph-name="badge-vr" d="M448 416c17.673 0 32-14.327 32-32v0-256c0-17.673-14.327-32-32-32v0h-384c-17.673 0-32 14.327-32 32v0 256c0 17.673 14.327 32 32 32v0h384zM64 448c-35.346 0-64-28.654-64-64v0-256c0-35.346 28.654-64 64-64v0h384c35.346 0 64 28.654 64 64v0 256c0 35.346-28.654 64-64 64v0h-384zM144.256 160h45.728l63.68 191.968h-42.144l-42.656-150.624h-1.824l-43.040 150.624h-44l64.256-191.968zM348.64 351.968h-76.64v-191.968h37.536v71.584h34.048l33.6-71.584h42.464l-38.528 77.344c17.44 6.72 34.88 25.728 34.88 53.856 0 36.704-24.736 60.8-67.36 60.8zM309.536 260.128v62.016h33.6c20.16 0 33.6-11.104 33.6-31.648 0-20.256-13.056-30.4-34.144-30.4h-33.056z" />
<glyph unicode="&#xe970;" glyph-name="badge-wc-fill" d="M0 384c0 35.346 28.654 64 64 64v0h384c35.346 0 64-28.654 64-64v0-256c0-35.346-28.654-64-64-64v0h-384c-35.346 0-64 28.654-64 64v0 256zM373.312 323.52c21.824 0 36.448-15.040 37.984-35.424h36.704v3.52c-1.696 37.984-32.768 64-74.944 64-51.328 0-80.576-33.6-80.576-88.032v-23.904c0-54.4 28.96-87.36 80.576-87.36 42.048 0 73.12 25.344 74.944 62.048v3.648h-36.704c-1.536-19.68-15.904-33.6-37.984-33.6-26.848 0-42.176 19.84-42.176 55.264v23.744c0 35.584 15.616 56.128 42.176 56.128zM175.296 293.888h1.408l32.64-133.888h32.192l46.464 191.968h-37.824l-26.24-139.36h-1.792l-31.104 139.36h-30.080l-31.104-139.36h-1.696l-26.464 139.36h-37.696l46.464-191.968h32.16l32.64 133.888z" />
<glyph unicode="&#xe971;" glyph-name="badge-wc" d="M331.136 267.424c0 35.584 15.616 56.128 42.176 56.128 21.824 0 36.448-15.040 37.984-35.456h36.704v3.52c-1.696 37.984-32.768 64-74.944 64-51.328 0-80.576-33.6-80.576-88.032v-23.904c0-54.4 28.96-87.36 80.576-87.36 42.048 0 73.12 25.344 74.944 62.048v3.648h-36.704c-1.536-19.68-15.904-33.6-37.984-33.6-26.848 0-42.176 19.84-42.176 55.264v23.744zM142.624 160l32.64 133.888h1.44l32.64-133.888h32.192l46.464 191.968h-37.824l-26.24-139.36h-1.792l-31.104 139.36h-30.080l-31.104-139.36h-1.696l-26.464 139.36h-37.696l46.464-191.968h32.16zM448 416c17.673 0 32-14.327 32-32v0-256c0-17.673-14.327-32-32-32v0h-384c-17.673 0-32 14.327-32 32v0 256c0 17.673 14.327 32 32 32v0h384zM64 448c-35.346 0-64-28.654-64-64v0-256c0-35.346 28.654-64 64-64v0h384c35.346 0 64 28.654 64 64v0 256c0 35.346-28.654 64-64 64v0h-384z" />
<glyph unicode="&#xe972;" glyph-name="bag-check-fill" d="M336 400c0 44.183-35.817 80-80 80s-80-35.817-80-80v0-16h160v16zM368 400v-16h112v-320c0-35.346-28.654-64-64-64v0h-320c-35.346 0-64 28.654-64 64v0 320h112v16c0 61.856 50.144 112 112 112s112-50.144 112-112v0zM347.328 228.672c2.899 2.899 4.692 6.904 4.692 11.328 0 8.848-7.173 16.020-16.020 16.020-4.424 0-8.429-1.793-11.328-4.692v0l-84.672-84.704-36.672 36.704c-2.899 2.899-6.904 4.692-11.328 4.692-8.847 0-16.020-7.173-16.020-16.020 0-4.424 1.793-8.429 4.692-11.328v0l48-48c2.897-2.904 6.903-4.7 11.328-4.7s8.431 1.796 11.328 4.7l96 96z" />
<glyph unicode="&#xe973;" glyph-name="bag-check" d="M347.328 251.328c2.904-2.897 4.7-6.902 4.7-11.328s-1.796-8.431-4.7-11.327l-96-96c-2.897-2.904-6.903-4.7-11.328-4.7s-8.431 1.796-11.328 4.7l-48 48c-2.899 2.899-4.692 6.904-4.692 11.328 0 8.848 7.173 16.020 16.020 16.020 4.424 0 8.429-1.793 11.328-4.692v0l36.672-36.704 84.672 84.704c2.897 2.904 6.902 4.701 11.328 4.701s8.431-1.797 11.327-4.701l0-0zM256 480c44.183 0 80-35.817 80-80v0-16h-160v16c0 44.183 35.817 80 80 80v0zM368 384v16c0 61.856-50.144 112-112 112s-112-50.144-112-112v0-16h-112v-320c0-35.346 28.654-64 64-64v0h320c35.346 0 64 28.654 64 64v0 320h-112zM64 352h384v-288c0-17.673-14.327-32-32-32v0h-320c-17.673 0-32 14.327-32 32v0 288z" />
<glyph unicode="&#xe974;" glyph-name="bag-dash-fill" d="M336 400c0 44.183-35.817 80-80 80s-80-35.817-80-80v0-16h160v16zM368 400v-16h112v-320c0-35.346-28.654-64-64-64v0h-320c-35.346 0-64 28.654-64 64v0 320h112v16c0 61.856 50.144 112 112 112s112-50.144 112-112v0zM192 208c-8.837 0-16-7.163-16-16s7.163-16 16-16v0h128c8.837 0 16 7.163 16 16s-7.163 16-16 16v0h-128z" />
<glyph unicode="&#xe975;" glyph-name="bag-dash" d="M176 192c0 8.837 7.163 16 16 16v0h128c8.837 0 16-7.163 16-16s-7.163-16-16-16v0h-128c-8.837 0-16 7.163-16 16v0zM256 480c44.183 0 80-35.817 80-80v0-16h-160v16c0 44.183 35.817 80 80 80v0zM368 384v16c0 61.856-50.144 112-112 112s-112-50.144-112-112v0-16h-112v-320c0-35.346 28.654-64 64-64v0h320c35.346 0 64 28.654 64 64v0 320h-112zM64 352h384v-288c0-17.673-14.327-32-32-32v0h-320c-17.673 0-32 14.327-32 32v0 288z" />
<glyph unicode="&#xe976;" glyph-name="bag-fill" d="M256 480c44.183 0 80-35.817 80-80v0-16h-160v16c0 44.183 35.817 80 80 80v0zM368 384v16c0 61.856-50.144 112-112 112s-112-50.144-112-112v0-16h-112v-320c0-35.346 28.654-64 64-64v0h320c35.346 0 64 28.654 64 64v0 320h-112z" />
<glyph unicode="&#xe977;" glyph-name="bag-plus-fill" d="M336 400c0 44.183-35.817 80-80 80s-80-35.817-80-80v0-16h160v16zM368 400v-16h112v-320c0-35.346-28.654-64-64-64v0h-320c-35.346 0-64 28.654-64 64v0 320h112v16c0 61.856 50.144 112 112 112s112-50.144 112-112v0zM272 256c0 8.837-7.163 16-16 16s-16-7.163-16-16v0-48h-48c-8.837 0-16-7.163-16-16s7.163-16 16-16v0h48v-48c0-8.837 7.163-16 16-16s16 7.163 16 16v0 48h48c8.837 0 16 7.163 16 16s-7.163 16-16 16v0h-48v48z" />
<glyph unicode="&#xe978;" glyph-name="bag-plus" d="M256 272c8.837 0 16-7.163 16-16v0-48h48c8.837 0 16-7.163 16-16s-7.163-16-16-16v0h-48v-48c0-8.837-7.163-16-16-16s-16 7.163-16 16v0 48h-48c-8.837 0-16 7.163-16 16s7.163 16 16 16v0h48v48c0 8.837 7.163 16 16 16v0zM256 480c44.183 0 80-35.817 80-80v0-16h-160v16c0 44.183 35.817 80 80 80v0zM368 384v16c0 61.856-50.144 112-112 112s-112-50.144-112-112v0-16h-112v-320c0-35.346 28.654-64 64-64v0h320c35.346 0 64 28.654 64 64v0 320h-112zM64 352h384v-288c0-17.673-14.327-32-32-32v0h-320c-17.673 0-32 14.327-32 32v0 288z" />
<glyph unicode="&#xe979;" glyph-name="bag-x-fill" d="M336 400c0 44.183-35.817 80-80 80s-80-35.817-80-80v0-16h160v16zM368 400v-16h112v-320c0-35.346-28.654-64-64-64v0h-320c-35.346 0-64 28.654-64 64v0 320h112v16c0 61.856 50.144 112 112 112s112-50.144 112-112v0zM219.328 251.328c-2.899 2.899-6.904 4.692-11.328 4.692-8.847 0-16.020-7.173-16.020-16.020 0-4.424 1.793-8.429 4.692-11.328v0l36.704-36.672-36.704-36.672c-2.899-2.899-4.692-6.904-4.692-11.328 0-8.848 7.173-16.020 16.020-16.020 4.424 0 8.429 1.793 11.328 4.692v0l36.672 36.704 36.672-36.704c2.899-2.899 6.904-4.692 11.328-4.692 8.848 0 16.020 7.173 16.020 16.020 0 4.424-1.793 8.429-4.692 11.328v0l-36.704 36.672 36.704 36.672c2.899 2.899 4.692 6.904 4.692 11.328 0 8.848-7.173 16.020-16.020 16.020-4.424 0-8.429-1.793-11.328-4.692v0l-36.672-36.704-36.672 36.704z" />
<glyph unicode="&#xe97a;" glyph-name="bag-x" d="M196.672 251.328c2.897 2.904 6.903 4.701 11.328 4.701s8.431-1.797 11.327-4.701l36.672-36.704 36.672 36.704c2.899 2.899 6.904 4.692 11.328 4.692 8.848 0 16.020-7.173 16.020-16.020 0-4.424-1.793-8.429-4.692-11.328v0l-36.704-36.672 36.704-36.672c2.899-2.899 4.692-6.904 4.692-11.328 0-8.848-7.173-16.020-16.020-16.020-4.424 0-8.429 1.793-11.328 4.692v0l-36.672 36.704-36.672-36.704c-2.899-2.899-6.904-4.692-11.328-4.692-8.847 0-16.020 7.173-16.020 16.020 0 4.424 1.793 8.429 4.692 11.328v0l36.704 36.672-36.704 36.672c-2.904 2.897-4.701 6.902-4.701 11.328s1.797 8.431 4.701 11.327l0 0zM256 480c44.183 0 80-35.817 80-80v0-16h-160v16c0 44.183 35.817 80 80 80v0zM368 384v16c0 61.856-50.144 112-112 112s-112-50.144-112-112v0-16h-112v-320c0-35.346 28.654-64 64-64v0h320c35.346 0 64 28.654 64 64v0 320h-112zM64 352h384v-288c0-17.673-14.327-32-32-32v0h-320c-17.673 0-32 14.327-32 32v0 288z" />
<glyph unicode="&#xe97b;" glyph-name="bag" d="M256 480c44.183 0 80-35.817 80-80v0-16h-160v16c0 44.183 35.817 80 80 80v0zM368 384v16c0 61.856-50.144 112-112 112s-112-50.144-112-112v0-16h-112v-320c0-35.346 28.654-64 64-64v0h320c35.346 0 64 28.654 64 64v0 320h-112zM64 352h384v-288c0-17.673-14.327-32-32-32v0h-320c-17.673 0-32 14.327-32 32v0 288z" />
<glyph unicode="&#xe97c;" glyph-name="bandaid-fill" d="M85.76 266.368l207.68 208.128c23.064 22.596 54.678 36.54 89.55 36.54 70.692 0 128-57.308 128-128 0-34.815-13.9-66.385-36.453-89.46l0.024 0.024-47.264-48.928-160.192-160.192-48.736-47.104c-23.052-22.529-54.62-36.43-89.436-36.43-70.692 0-128 57.308-128 128 0 34.871 13.944 66.486 36.561 89.571l-0.021-0.022 0.032 0.064 48.192 47.808zM268.48 357.824c-2.898 2.902-6.904 4.697-11.328 4.697-8.841 0-16.009-7.167-16.009-16.009 0-4.417 1.788-8.416 4.681-11.312v0c2.875-2.779 6.795-4.492 11.116-4.492 8.837 0 16 7.163 16 16 0 4.321-1.712 8.241-4.495 11.12l0.005-0.005zM223.168 289.952c3.013 2.913 4.885 6.993 4.885 11.509 0 8.837-7.163 16-16 16-4.516 0-8.595-1.871-11.505-4.88l-0.005-0.005c-2.779-2.875-4.492-6.795-4.492-11.115 0-8.837 7.163-16 16-16 4.321 0 8.241 1.712 11.12 4.495l-0.005-0.005zM177.92 244.672c2.902 2.898 4.697 6.904 4.697 11.328 0 8.841-7.167 16.009-16.009 16.009-4.417 0-8.416-1.788-11.312-4.681v0c-2.902-2.898-4.697-6.904-4.697-11.328 0-8.841 7.167-16.009 16.009-16.009 4.417 0 8.416 1.788 11.312 4.681v0zM268.416 154.176c3.014 2.913 4.885 6.993 4.885 11.509 0 8.837-7.163 16-16 16-4.516 0-8.595-1.871-11.505-4.88l-0.005-0.005c-2.779-2.875-4.492-6.795-4.492-11.115 0-8.837 7.163-16 16-16 4.32 0 8.241 1.712 11.12 4.495l-0.005-0.005zM313.664 222.048c-2.913 3.014-6.993 4.885-11.509 4.885-8.837 0-16-7.163-16-16 0-4.516 1.871-8.595 4.88-11.505l0.005-0.005c2.875-2.779 6.795-4.491 11.115-4.491 8.837 0 16 7.163 16 16 0 4.32-1.712 8.241-4.495 11.12l0.005-0.005zM358.912 244.672c3.023 2.915 4.9 7 4.9 11.524 0 8.837-7.163 16-16 16-4.508 0-8.58-1.864-11.488-4.863l-0.004-0.004c-2.902-2.898-4.697-6.904-4.697-11.328 0-8.841 7.168-16.009 16.009-16.009 4.417 0 8.416 1.788 11.312 4.681v0zM223.168 222.048c-2.913 3.014-6.993 4.885-11.508 4.885-8.837 0-16-7.163-16-16 0-4.516 1.871-8.595 4.88-11.505l0.005-0.005c2.875-2.779 6.795-4.491 11.115-4.491 8.837 0 16 7.163 16 16 0 4.32-1.713 8.241-4.495 11.12l0.005-0.005zM268.416 244.672c2.902 2.898 4.697 6.904 4.697 11.328 0 8.841-7.168 16.009-16.009 16.009-4.417 0-8.416-1.788-11.312-4.681v0c-2.902-2.898-4.697-6.904-4.697-11.328 0-8.841 7.167-16.009 16.009-16.009 4.417 0 8.416 1.788 11.312 4.681v0zM313.664 312.576c-2.913 3.013-6.993 4.885-11.509 4.885-8.837 0-16-7.163-16-16 0-4.516 1.871-8.595 4.88-11.505l0.005-0.005c2.875-2.779 6.795-4.492 11.115-4.492 8.837 0 16 7.163 16 16 0 4.32-1.712 8.241-4.495 11.12l0.005-0.005zM276.672 404.672l128-128 22.656 22.656-128 128-22.656-22.656zM235.328 107.328l-128 128-22.656-22.656 128-128 22.656 22.656z" />
<glyph unicode="&#xe97d;" glyph-name="bandaid" d="M451.872 451.872c-17.372 17.366-41.368 28.107-67.872 28.107s-50.5-10.741-67.873-28.108l-36.671-36.703 136.352-136.32 36.064 37.28c17.366 17.371 28.108 41.367 28.108 67.872s-10.741 50.5-28.108 67.873l0-0zM393.376 256l-136.512 136.512-137.248-137.504 136.384-136.384 137.376 137.376zM233.184 96.192l-136.224 136.224-36.832-36.576c-16.098-17.127-25.988-40.25-25.988-65.683 0-53.019 42.98-96 96-96 25.441 0 48.571 9.897 65.75 26.050l-0.050-0.046 0.192 0.192 37.12 35.872zM85.728 266.368l207.744 208.128c23.064 22.596 54.678 36.54 89.549 36.54 70.692 0 128-57.308 128-128 0-34.815-13.9-66.385-36.453-89.46l0.024 0.024-47.264-48.928-160.192-160.192-48.736-47.104c-23.052-22.529-54.62-36.43-89.436-36.43-70.692 0-128 57.308-128 128 0 34.871 13.944 66.486 36.561 89.571l-0.021-0.022 0.032 0.064 48.192 47.808zM177.92 267.328c3.023-2.915 4.9-7 4.9-11.523 0-8.837-7.163-16-16-16-4.508 0-8.58 1.864-11.488 4.863l-0.004 0.004c-2.902 2.898-4.697 6.904-4.697 11.328 0 8.841 7.167 16.009 16.009 16.009 4.417 0 8.416-1.788 11.312-4.681v0zM223.2 312.576c3.013-2.913 4.885-6.993 4.885-11.509 0-8.837-7.163-16-16-16-4.516 0-8.595 1.871-11.505 4.88l-0.005 0.005c-2.779 2.875-4.492 6.795-4.492 11.115 0 8.837 7.163 16 16 16 4.321 0 8.241-1.712 11.12-4.495l-0.005 0.005zM268.48 357.824c2.892-2.896 4.681-6.895 4.681-11.312 0-8.841-7.168-16.009-16.009-16.009-4.424 0-8.43 1.795-11.328 4.697v0c-2.779 2.875-4.492 6.795-4.492 11.115 0 8.837 7.163 16 16 16 4.32 0 8.241-1.713 11.12-4.495l-0.005 0.005zM268.48 176.8c2.892-2.896 4.681-6.895 4.681-11.312 0-8.841-7.168-16.009-16.009-16.009-4.424 0-8.43 1.795-11.328 4.697v0c-2.779 2.875-4.492 6.795-4.492 11.115 0 8.837 7.163 16 16 16 4.32 0 8.241-1.712 11.12-4.495l-0.005 0.005zM313.696 222.080c2.902-2.898 4.697-6.904 4.697-11.328 0-8.841-7.168-16.009-16.009-16.009-4.417 0-8.416 1.788-11.312 4.681v0c-2.779 2.875-4.491 6.795-4.491 11.115 0 8.837 7.163 16 16 16 4.32 0 8.241-1.712 11.12-4.495l-0.005 0.005zM358.944 267.328c3.023-2.915 4.9-7 4.9-11.523 0-8.837-7.163-16-16-16-4.508 0-8.58 1.864-11.488 4.863l-0.004 0.004c-2.902 2.898-4.697 6.904-4.697 11.328 0 8.841 7.168 16.009 16.009 16.009 4.417 0 8.416-1.788 11.312-4.681v0zM223.2 222.080c2.902-2.898 4.697-6.904 4.697-11.328 0-8.841-7.167-16.009-16.009-16.009-4.417 0-8.416 1.788-11.312 4.681v0c-2.779 2.875-4.492 6.795-4.492 11.115 0 8.837 7.163 16 16 16 4.321 0 8.241-1.712 11.12-4.495l-0.005 0.005zM268.48 267.328c2.899-2.899 4.692-6.904 4.692-11.328 0-8.848-7.173-16.020-16.020-16.020-4.424 0-8.429 1.793-11.328 4.692v0c-2.902 2.898-4.697 6.904-4.697 11.328 0 8.841 7.167 16.009 16.009 16.009 4.417 0 8.416-1.788 11.312-4.681v0zM313.696 312.576c3.014-2.913 4.885-6.993 4.885-11.509 0-8.837-7.163-16-16-16-4.516 0-8.595 1.871-11.505 4.88l-0.005 0.005c-2.779 2.875-4.491 6.795-4.491 11.115 0 8.837 7.163 16 16 16 4.32 0 8.241-1.712 11.12-4.495l-0.005 0.005z" />
<glyph unicode="&#xe97e;" glyph-name="bank" d="M256 481.6l211.52-97.6h28.48c8.837 0 16-7.163 16-16v0-64c0-8.837-7.163-16-16-16v0h-16v-224c7.459-0.002 13.726-5.109 15.496-12.017l0.024-0.111 16-64c0.302-1.163 0.476-2.497 0.476-3.872 0-8.835-7.161-15.997-15.995-16h-480c-8.835 0.003-15.995 7.165-15.995 16 0 1.375 0.173 2.71 0.5 3.983l-0.024-0.111 16 64c1.794 7.019 8.061 12.126 15.52 12.128v0 224h-16c-8.836 0-16 7.163-16 16v0 64c0 8.837 7.163 16 16 16v0h28.48l211.52 97.6zM120.832 384h270.304l-135.136 62.4-135.168-62.4zM64 288v-224h32v224h-32zM128 288v-224h80v224h-80zM240 288v-224h32v224h-32zM304 288v-224h80v224h-80zM416 288v-224h32v224h-32zM480 320v32h-448v-32h448zM467.52 32h-423.040l-8-32h439.040l-8 32z" />
<glyph unicode="&#xe97f;" glyph-name="bank2" d="M264.864 509.312c-2.491 1.679-5.561 2.679-8.864 2.679s-6.373-1.001-8.921-2.716l0.057 0.036-240-160c-4.32-2.911-7.123-7.784-7.123-13.312 0-8.832 7.157-15.993 15.987-16h60.001v-224h-28c-8.837 0-16-7.163-16-16s7.163-16 16-16v0h416c8.837 0 16 7.163 16 16s-7.163 16-16 16v0h-28v224h60c8.831 0.007 15.988 7.168 15.988 16 0 5.528-2.803 10.401-7.067 13.276l-0.057 0.036-240 160zM396 320v-224h-40v224h40zM316 320v-224h-40v224h40zM236 320v-224h-40v224h40zM156 320v-224h-40v224h40zM256 384c-17.673 0-32 14.327-32 32s14.327 32 32 32v0c17.673 0 32-14.327 32-32s-14.327-32-32-32v0zM16 32c-8.836 0-16-7.163-16-16s7.163-16 16-16v0h480c8.837 0 16 7.163 16 16s-7.163 16-16 16v0h-480z" />
<glyph unicode="&#xe980;" glyph-name="bar-chart-fill" d="M32 160c0 17.673 14.327 32 32 32v0h64c17.673 0 32-14.327 32-32v0-96c0-17.673-14.327-32-32-32v0h-64c-17.673 0-32 14.327-32 32v0 96zM192 288c0 17.673 14.327 32 32 32v0h64c17.673 0 32-14.327 32-32v0-224c0-17.673-14.327-32-32-32v0h-64c-17.673 0-32 14.327-32 32v0 224zM352 448c0 17.673 14.327 32 32 32v0h64c17.673 0 32-14.327 32-32v0-384c0-17.673-14.327-32-32-32v0h-64c-17.673 0-32 14.327-32 32v0 384z" />
<glyph unicode="&#xe981;" glyph-name="bar-chart-line-fill" d="M352 448c0 17.673 14.327 32 32 32v0h64c17.673 0 32-14.327 32-32v0-384h16c8.837 0 16-7.163 16-16s-7.163-16-16-16v0h-480c-8.836 0-16 7.163-16 16s7.163 16 16 16v0h16v96c0 17.673 14.327 32 32 32v0h64c17.673 0 32-14.327 32-32v0-96h32v224c0 17.673 14.327 32 32 32v0h64c17.673 0 32-14.327 32-32v0-224h32v384z" />
<glyph unicode="&#xe982;" glyph-name="bar-chart-line" d="M352 448c0 17.673 14.327 32 32 32v0h64c17.673 0 32-14.327 32-32v0-384h16c8.837 0 16-7.163 16-16s-7.163-16-16-16v0h-480c-8.836 0-16 7.163-16 16s7.163 16 16 16v0h16v96c0 17.673 14.327 32 32 32v0h64c17.673 0 32-14.327 32-32v0-96h32v224c0 17.673 14.327 32 32 32v0h64c17.673 0 32-14.327 32-32v0-224h32v384zM384 64h64v384h-64v-384zM288 64v224h-64v-224h64zM128 64v96h-64v-96h64z" />
<glyph unicode="&#xe983;" glyph-name="bar-chart-steps" d="M16 512c8.837 0 16-7.163 16-16v0-480c0-8.837-7.163-16-16-16s-16 7.163-16 16v0 480c0 8.837 7.163 16 16 16v0zM64 464c0 8.837 7.163 16 16 16v0h128c8.837 0 16-7.163 16-16v0-32c0-8.837-7.163-16-16-16v0h-128c-8.837 0-16 7.163-16 16v0 32zM128 336c0 8.837 7.163 16 16 16v0h224c8.837 0 16-7.163 16-16v0-32c0-8.837-7.163-16-16-16v0h-224c-8.837 0-16 7.163-16 16v0 32zM192 208c0 8.837 7.163 16 16 16v0h192c8.837 0 16-7.163 16-16v0-32c0-8.837-7.163-16-16-16v0h-192c-8.837 0-16 7.163-16 16v0 32zM256 80c0 8.837 7.163 16 16 16v0h224c8.837 0 16-7.163 16-16v0-32c0-8.837-7.163-16-16-16v0h-224c-8.837 0-16 7.163-16 16v0 32z" />
<glyph unicode="&#xe984;" glyph-name="bar-chart" d="M128 160h-64v-96h64v96zM288 288h-64v-224h64v224zM448 448v-384h-64v384h64zM384 480c-17.673 0-32-14.327-32-32v0-384c0-17.673 14.327-32 32-32v0h64c17.673 0 32 14.327 32 32v0 384c0 17.673-14.327 32-32 32v0h-64zM192 288c0 17.673 14.327 32 32 32v0h64c17.673 0 32-14.327 32-32v0-224c0-17.673-14.327-32-32-32v0h-64c-17.673 0-32 14.327-32 32v0 224zM32 160c0 17.673 14.327 32 32 32v0h64c17.673 0 32-14.327 32-32v0-96c0-17.673-14.327-32-32-32v0h-64c-17.673 0-32 14.327-32 32v0 96z" />
<glyph unicode="&#xe985;" glyph-name="basket-fill" d="M162.272 472.224c2.846 4.692 7.927 7.779 13.728 7.779 8.838 0 16.003-7.164 16.003-16.003 0-3.037-0.846-5.876-2.315-8.295l0.040 0.071-81.472-135.776h295.488l-81.504 135.776c-1.429 2.348-2.275 5.187-2.275 8.224 0 8.838 7.164 16.003 16.003 16.003 5.801 0 10.882-3.087 13.688-7.708l0.040-0.071 91.36-152.224h54.944c8.837 0 16-7.163 16-16v0-64c0-8.837-7.163-16-16-16v0h-16v-160c0-35.346-28.654-64-64-64v0h-320c-35.346 0-64 28.654-64 64v0 160h-16c-8.836 0-16 7.163-16 16v0 64c0 8.837 7.163 16 16 16v0h54.944l91.296 152.224zM112 176c0 8.837-7.163 16-16 16s-16-7.163-16-16v0-96c0-8.837 7.163-16 16-16s16 7.163 16 16v0 96zM192 176c0 8.837-7.163 16-16 16s-16-7.163-16-16v0-96c0-8.837 7.163-16 16-16s16 7.163 16 16v0 96zM272 176c0 8.837-7.163 16-16 16s-16-7.163-16-16v0-96c0-8.837 7.163-16 16-16s16 7.163 16 16v0 96zM352 176c0 8.837-7.163 16-16 16s-16-7.163-16-16v0-96c0-8.837 7.163-16 16-16s16 7.163 16 16v0 96zM432 176c0 8.837-7.163 16-16 16s-16-7.163-16-16v0-96c0-8.837 7.163-16 16-16s16 7.163 16 16v0 96z" />
<glyph unicode="&#xe986;" glyph-name="basket" d="M184.224 477.728c4.692-2.846 7.78-7.925 7.78-13.727 0-3.037-0.846-5.877-2.316-8.296l0.040 0.071-81.472-135.776h295.488l-81.504 135.776c-1.429 2.348-2.275 5.187-2.275 8.224 0 8.838 7.164 16.003 16.003 16.003 5.801 0 10.882-3.087 13.688-7.708l0.040-0.071 91.36-152.224h38.944c17.673 0 32-14.327 32-32v0-32c0-17.673-14.327-32-32-32v0-144c0-44.183-35.817-80-80-80v0h-288c-44.183 0-80 35.817-80 80v0 144c-17.673 0-32 14.327-32 32v0 32c0 17.673 14.327 32 32 32v0h38.944l91.296 152.224c2.845 4.692 7.925 7.78 13.727 7.78 3.037 0 5.877-0.846 8.296-2.316l-0.071 0.040zM64 224v-144c0-26.51 21.49-48 48-48v0h288c26.51 0 48 21.49 48 48v0 144h-384zM32 288v-32h448v32h-448zM128 192c8.837 0 16-7.163 16-16v0-96c0-8.837-7.163-16-16-16s-16 7.163-16 16v0 96c0 8.837 7.163 16 16 16v0zM192 192c8.837 0 16-7.163 16-16v0-96c0-8.837-7.163-16-16-16s-16 7.163-16 16v0 96c0 8.837 7.163 16 16 16v0zM256 192c8.837 0 16-7.163 16-16v0-96c0-8.837-7.163-16-16-16s-16 7.163-16 16v0 96c0 8.837 7.163 16 16 16v0zM320 192c8.837 0 16-7.163 16-16v0-96c0-8.837-7.163-16-16-16s-16 7.163-16 16v0 96c0 8.837 7.163 16 16 16v0zM384 192c8.837 0 16-7.163 16-16v0-96c0-8.837-7.163-16-16-16s-16 7.163-16 16v0 96c0 8.837 7.163 16 16 16v0z" />
<glyph unicode="&#xe987;" glyph-name="basket2-fill" d="M189.728 455.776c1.429 2.348 2.275 5.187 2.275 8.224 0 8.838-7.165 16.003-16.003 16.003-5.802 0-10.881-3.087-13.688-7.708l-0.040-0.071-91.328-152.224h-54.944c-8.836 0-16-7.163-16-16v0-32c0-8.837 7.163-16 16-16v0h19.936l59.008-206.592c2.963-10.132 12.17-17.408 23.077-17.408 0.021 0 0.041 0 0.063 0h275.901c0.008 0 0.017 0 0.027 0 10.907 0 20.115 7.276 23.034 17.238l0.043 0.17 58.976 206.592h19.936c8.837 0 16 7.163 16 16v0 32c0 8.837-7.163 16-16 16v0h-54.944l-91.296 152.224c-2.846 4.692-7.926 7.779-13.728 7.779-8.838 0-16.003-7.165-16.003-16.003 0-3.037 0.846-5.876 2.315-8.295l-0.040 0.071 81.44-135.776h-295.488l81.504 135.776zM128 192c0 17.673 14.327 32 32 32s32-14.327 32-32v0-64c0-17.673-14.327-32-32-32s-32 14.327-32 32v0 64zM224 192c0 17.673 14.327 32 32 32s32-14.327 32-32v0-64c0-17.673-14.327-32-32-32s-32 14.327-32 32v0 64zM352 224c17.673 0 32-14.327 32-32v0-64c0-17.673-14.327-32-32-32s-32 14.327-32 32v0 64c0 17.673 14.327 32 32 32v0z" />
<glyph unicode="&#xe988;" glyph-name="basket2" d="M128 192c0 17.673 14.327 32 32 32s32-14.327 32-32v0-64c0-17.673-14.327-32-32-32s-32 14.327-32 32v0 64zM224 192c0 17.673 14.327 32 32 32s32-14.327 32-32v0-64c0-17.673-14.327-32-32-32s-32 14.327-32 32v0 64zM320 192c0 17.673 14.327 32 32 32s32-14.327 32-32v0-64c0-17.673-14.327-32-32-32s-32 14.327-32 32v0 64zM184.224 477.728c4.692-2.846 7.78-7.925 7.78-13.727 0-3.037-0.846-5.877-2.316-8.296l0.040 0.071-81.472-135.776h295.488l-81.504 135.776c-1.429 2.348-2.275 5.187-2.275 8.224 0 8.838 7.164 16.003 16.003 16.003 5.801 0 10.882-3.087 13.688-7.708l0.040-0.071 91.36-152.224h54.944c8.837 0 16-7.163 16-16v0-32c0-8.837-7.163-16-16-16v0h-19.936l-59.008-206.592c-2.962-10.132-12.17-17.408-23.077-17.408-0.010 0-0.019 0-0.029 0h-275.87c-0.008 0-0.017 0-0.027 0-10.907 0-20.115 7.276-23.034 17.238l-0.043 0.17-59.040 206.592h-19.936c-8.836 0-16 7.163-16 16v0 32c0 8.837 7.163 16 16 16v0h54.944l91.296 152.224c2.845 4.693 7.925 7.78 13.727 7.78 3.037 0 5.877-0.846 8.296-2.316l-0.071 0.040zM69.216 256l54.848-192h263.872l54.848 192h-373.568z" />
<glyph unicode="&#xe989;" glyph-name="basket3-fill" d="M184.224 477.728c4.692-2.846 7.78-7.925 7.78-13.727 0-3.037-0.846-5.877-2.316-8.296l0.040 0.071-81.472-135.776h295.488l-81.504 135.776c-1.429 2.348-2.275 5.187-2.275 8.224 0 8.838 7.164 16.003 16.003 16.003 5.801 0 10.882-3.087 13.688-7.708l0.040-0.071 91.36-152.224h54.944c8.837 0 16-7.163 16-16v0-32c0-8.837-7.163-16-16-16v0h-480c-8.836 0-16 7.163-16 16v0 32c0 8.837 7.163 16 16 16v0h54.944l91.296 152.224c2.845 4.693 7.925 7.78 13.727 7.78 3.037 0 5.877-0.846 8.296-2.316l-0.071 0.040zM78.976 18.368l-48.8 205.632h451.648l-48.8-205.632c-2.627-10.618-12.073-18.367-23.328-18.368h-307.392c-0.009 0-0.019 0-0.030 0-11.256 0-20.702 7.749-23.295 18.203l-0.034 0.165z" />
<glyph unicode="&#xe98a;" glyph-name="basket3" d="M184.224 477.728c4.692-2.846 7.78-7.925 7.78-13.727 0-3.037-0.846-5.877-2.316-8.296l0.040 0.071-81.472-135.776h295.488l-81.504 135.776c-1.429 2.348-2.275 5.187-2.275 8.224 0 8.838 7.164 16.003 16.003 16.003 5.801 0 10.882-3.087 13.688-7.708l0.040-0.071 91.36-152.224h54.944c8.837 0 16-7.163 16-16v0-32c0-8.837-7.163-16-16-16v0h-480c-8.836 0-16 7.163-16 16v0 32c0 8.837 7.163 16 16 16v0h54.944l91.296 152.224c2.845 4.693 7.925 7.78 13.727 7.78 3.037 0 5.877-0.846 8.296-2.316l-0.071 0.040zM108.608 32l-47.36 192h-31.040l48.8-205.632c2.627-10.618 12.073-18.367 23.328-18.368h307.392c0.009 0 0.019 0 0.030 0 11.256 0 20.702 7.749 23.295 18.203l0.034 0.165 48.704 205.632h-31.104l-47.328-192h-294.72z" />
<glyph unicode="&#xe98b;" glyph-name="battery-charging" d="M306.72 429.824c4.787-2.825 7.948-7.957 7.948-13.827 0-1.69-0.262-3.318-0.748-4.847l0.031 0.113-36.288-117.888h63.68c0.002 0 0.004 0 0.007 0 8.837 0 16-7.163 16-16 0-4.253-1.659-8.118-4.365-10.983l0.007 0.007-170.688-181.344c-2.925-3.106-7.065-5.039-11.655-5.039-8.837 0-16 7.163-16 16 0 1.684 0.26 3.308 0.743 4.832l-0.031-0.113 36.32 117.92h-63.68c-0.002 0-0.004 0-0.007 0-8.837 0-16 7.163-16 16 0 4.253 1.659 8.118 4.365 10.983l-0.007-0.007 170.656 181.344c2.926 3.112 7.070 5.050 11.666 5.050 2.964 0 5.74-0.806 8.12-2.211l-0.075 0.041zM64 384h138.624l-30.080-32h-108.544c-17.673 0-32-14.327-32-32v0-128c0-17.673 14.327-32 32-32v0h76.16l-9.856-32h-66.304c-35.346 0-64 28.654-64 64v0 128c0 35.346 28.654 64 64 64v0zM64 320h78.4l-49.344-52.448c-8.076-8.57-13.040-20.151-13.040-32.891 0-18.474 10.437-34.511 25.736-42.536l0.263-0.126h-42.016v128zM339.040 384l-9.856-32h54.816c17.673 0 32-14.327 32-32v0-128c0-17.673-14.327-32-32-32v0h-87.168l-30.144-32h117.312c35.346 0 64 28.654 64 64v0 128c0 35.346-28.654 64-64 64v0h-44.96zM384 192h-57.056l49.344 52.448c3.104 3.296 5.696 6.976 7.712 10.88v-63.328zM384 299.328v20.672h-20.672c8.914-4.661 16.011-11.758 20.546-20.409l0.126-0.264zM512 256c0-26.51-21.49-48-48-48v0 96c26.51 0 48-21.49 48-48v0z" />
<glyph unicode="&#xe98c;" glyph-name="battery-full" d="M64 320h320v-128h-320v128zM64 384c-35.346 0-64-28.654-64-64v0-128c0-35.346 28.654-64 64-64v0h320c35.346 0 64 28.654 64 64v0 128c0 35.346-28.654 64-64 64v0h-320zM384 352c17.673 0 32-14.327 32-32v0-128c0-17.673-14.327-32-32-32v0h-320c-17.673 0-32 14.327-32 32v0 128c0 17.673 14.327 32 32 32v0h320zM512 256c0-26.51-21.49-48-48-48v0 96c26.51 0 48-21.49 48-48v0z" />
<glyph unicode="&#xe98d;" glyph-name="battery-half" d="M64 320h160v-128h-160v128zM64 384c-35.346 0-64-28.654-64-64v0-128c0-35.346 28.654-64 64-64v0h320c35.346 0 64 28.654 64 64v0 128c0 35.346-28.654 64-64 64v0h-320zM384 352c17.673 0 32-14.327 32-32v0-128c0-17.673-14.327-32-32-32v0h-320c-17.673 0-32 14.327-32 32v0 128c0 17.673 14.327 32 32 32v0h320zM512 256c0-26.51-21.49-48-48-48v0 96c26.51 0 48-21.49 48-48v0z" />
<glyph unicode="&#xe98e;" glyph-name="battery" d="M0 320c0 35.346 28.654 64 64 64v0h320c35.346 0 64-28.654 64-64v0-128c0-35.346-28.654-64-64-64v0h-320c-35.346 0-64 28.654-64 64v0 128zM64 352c-17.673 0-32-14.327-32-32v0-128c0-17.673 14.327-32 32-32v0h320c17.673 0 32 14.327 32 32v0 128c0 17.673-14.327 32-32 32v0h-320zM512 256c0-26.51-21.49-48-48-48v0 96c26.51 0 48-21.49 48-48v0z" />
</font>
</defs>
</svg>
